<?xml version="1.0" standalone="no"?>
<!DOCTYPE svg PUBLIC "-//W3C//DTD SVG 1.1//EN" "http://www.w3.org/Graphics/SVG/1.1/DTD/svg11.dtd" >
<svg xmlns="http://www.w3.org/2000/svg">
<metadata>Generated by IcoMoon</metadata>
<defs>
<font id="icomoon" horiz-adv-x="1024">
<font-face units-per-em="1024" ascent="960" descent="-64" />
<missing-glyph horiz-adv-x="1024" />
<glyph unicode="&#x20;" horiz-adv-x="512" d="" />
<glyph unicode="&#xe900;" glyph-name="youtube" d="M781.899 730.449h-539.795c-76.249 0-138.087-61.838-138.087-138.087v-288.728c0-76.249 61.838-138.087 138.087-138.087h539.795c76.249 0 138.087 61.838 138.087 138.087v288.728c0 76.249-61.838 138.087-138.087 138.087zM546.52 385.235l-122.394-62.765v251.067l244.792-125.536z" />
<glyph unicode="&#xe901;" glyph-name="alarm" d="M440.503 102.144c22.101-24.619 50.475-38.144 79.915-38.144h0.043c29.568 0 58.069 13.525 80.213 38.187 11.861 13.099 32.085 14.165 45.184 2.347 13.141-11.819 14.208-32.085 2.389-45.184-34.475-38.272-79.829-59.349-127.787-59.349h-0.085c-47.829 0.043-93.099 21.12-127.445 59.392-11.819 13.099-10.752 33.365 2.389 45.141 13.141 11.861 33.365 10.795 45.184-2.389zM522.543 917.333c189.653 0 317.056-147.712 317.056-285.653 0-70.955 18.048-101.035 37.205-132.949 18.944-31.488 40.405-67.243 40.405-134.827-14.891-172.672-195.157-186.752-394.667-186.752s-379.819 14.080-394.539 184.021c-0.127 70.315 21.334 106.069 40.278 137.557l6.688 11.257c16.466 28.301 30.518 59.085 30.518 121.692 0 137.941 127.403 285.653 317.056 285.653zM522.543 853.333c-149.12 0-253.056-116.821-253.056-221.653 0-88.704-24.619-129.707-46.379-165.888-17.451-29.056-31.232-52.011-31.232-101.888 7.125-80.469 60.245-122.752 330.667-122.752 268.928 0 323.712 44.16 330.795 125.525-0.128 47.104-13.909 70.059-31.36 99.115-21.76 36.181-46.379 77.184-46.379 165.888 0 104.832-103.936 221.653-253.056 221.653z" />
<glyph unicode="&#xe902;" glyph-name="basket" d="M763.2 566.72l-205.12 307.84c-9.461 10.305-22.539 17.159-37.208 18.542l-0.232 0.018c-0.722 0.044-1.566 0.069-2.415 0.069-14.52 0-27.328-7.326-34.931-18.483l-0.094-0.146-204.8-307.84h-224c-0.789 0.051-1.711 0.080-2.64 0.080-24.212 0-43.84-19.628-43.84-43.84 0-0.929 0.029-1.85 0.086-2.765l-0.006 0.125v-14.080l116.48-433.28c11.322-39.569 46.396-68.347 88.45-70.074l0.19-0.006h606.080c0.278-0.003 0.606-0.005 0.935-0.005 42.63 0 78.331 29.665 87.586 69.478l0.119 0.607 116.16 433.28v14.080c0.051 0.795 0.081 1.724 0.081 2.66 0 24.212-19.628 43.84-43.84 43.84-1.042 0-2.075-0.036-3.099-0.108l0.138 0.008zM379.2 566.72l140.16 205.44 139.84-205.44z" />
<glyph unicode="&#xe903;" glyph-name="bin" d="M827.076 587.947c17.621-1.451 30.763-16.853 29.355-34.475-0.256-2.901-23.381-289.237-36.693-409.344-8.277-74.539-57.515-119.893-131.84-121.259-56.875-0.981-111.744-1.536-165.376-1.536-57.813 0-114.176 0.64-169.941 1.792-71.339 1.408-120.704 47.659-128.768 120.704-13.44 121.173-36.437 406.784-36.651 409.643-1.451 17.621 11.691 33.067 29.312 34.475 17.365 0.469 33.067-11.733 34.475-29.312 0.136-1.852 9.538-118.487 19.783-233.886l2.058-23.029c5.16-57.36 10.391-112.477 14.639-150.85 4.565-41.515 26.965-62.933 66.475-63.744 106.667-2.261 215.509-2.389 332.843-0.256 41.984 0.811 64.683 21.803 69.376 64.299 13.227 119.211 36.267 404.565 36.523 407.467 1.408 17.579 16.981 29.867 34.432 29.312zM612.070 874.654c39.168 0 73.6-26.411 83.712-64.256l10.837-53.803c3.502-17.637 18.98-30.518 36.901-30.801l140.020-0.005c17.664 0 32-14.336 32-32s-14.336-32-32-32l-138.77 0.006c-0.215-0.004-0.431-0.006-0.648-0.006l-1.041 0.043-442.64-0.037c-0.344-0.003-0.689-0.005-1.033-0.005l-0.657 0.043-138.752-0.043c-17.664 0-32 14.336-32 32s14.336 32 32 32l139.989 0.043 4.31 0.273c16.055 2.083 29.398 14.277 32.656 30.49l10.368 51.883c10.539 39.765 44.971 66.176 84.139 66.176h180.608zM612.070 810.654h-180.608c-10.24 0-19.243-6.869-21.845-16.725l-9.941-49.92c-1.263-6.323-3.103-12.417-5.458-18.23h255.11c-2.357 5.814-4.201 11.907-5.471 18.23l-10.368 51.883c-2.176 7.893-11.179 14.763-21.419 14.763z" />
<glyph unicode="&#xe904;" glyph-name="pause" horiz-adv-x="704" d="M0 960h256v-1024h-256zM448 960h256v-1024h-256z" />
<glyph unicode="&#xe905;" glyph-name="book" d="M885.029 832v-833.829h-672.914c-45.803 9.176-79.828 49.072-79.828 96.914s34.025 87.738 79.197 96.809l0.631 0.106h610.743v768h-640c-70.692 0-128-57.308-128-128v0-768c0-70.692 57.308-128 128-128v0h768v896zM245.029 126.171h577.829v-62.171h-577.829z" />
<glyph unicode="&#xe906;" glyph-name="bubble" d="M512 923.429c281.6 0 512-186.514 512-416.914s-230.4-413.257-512-413.257h-80.457c-109.714-109.714-241.371-128-365.714-131.657v25.6c65.829 32.914 128 95.086 128 164.571 0 10.971-3.657 18.286-3.657 29.257-111.908 67.847-186.442 187.566-190.16 324.957l-0.011 0.529c0 230.4 230.4 416.914 512 416.914z" />
<glyph unicode="&#xe907;" glyph-name="calendar" d="M673.856 917.333c17.664 0 32-14.336 32-32l0.020-36.173c62.298-4.271 114.038-25.61 150.658-62.306 39.979-40.149 61.013-97.877 60.802-167.125v-389.248c0-142.165-90.284-230.485-235.564-230.485h-360.875c-145.28 0-235.563 89.557-235.563 233.728v386.091c0 134.093 80.514 220.167 211.827 229.331l0.026 36.188c0 17.664 14.336 32 32 32s32-14.336 32-32l-0.013-35.371h280.661l0.021 35.371c0 17.664 14.336 32 32 32zM853.333 537.429h-704v-303.706c0-109.483 60.928-169.728 171.563-169.728h360.875c110.635 0 171.564 59.136 171.564 166.485l-0.002 306.948zM691.251 268.958c17.664 0 32-14.336 32-32s-14.336-32-32-32c-17.664 0-32.171 14.336-32.171 32s14.123 32 31.787 32h0.384zM501.918 268.958c17.664 0 32-14.336 32-32s-14.336-32-32-32c-17.664 0-32.171 14.336-32.171 32s14.123 32 31.787 32h0.384zM312.188 268.958c17.664 0 32-14.336 32-32s-14.336-32-32-32c-17.664 0-32.213 14.336-32.213 32s14.165 32 31.829 32h0.384zM691.251 434.79c17.664 0 32-14.336 32-32s-14.336-32-32-32c-17.664 0-32.171 14.336-32.171 32s14.123 32 31.787 32h0.384zM501.918 434.79c17.664 0 32-14.336 32-32s-14.336-32-32-32c-17.664 0-32.171 14.336-32.171 32s14.123 32 31.787 32h0.384zM312.188 434.79c17.664 0 32-14.336 32-32s-14.336-32-32-32c-17.664 0-32.213 14.336-32.213 32s14.165 32 31.829 32h0.384zM641.835 785.963h-280.661l0.013-41.045c0-17.664-14.336-32-32-32s-32 14.336-32 32l-0.023 40.077c-95.583-8.029-147.83-65.969-147.83-165.18v-18.385h704l0.002 18.385c0.169 52.693-13.996 93.653-42.114 121.813-24.682 24.755-60.763 39.539-105.329 43.346l-0.036-40.056c0-17.664-14.336-32-32-32s-32 14.336-32 32l-0.021 41.045z" />
<glyph unicode="&#xe908;" glyph-name="camera" d="M653.549 816.876c24.902-9.912 42.51-27.777 58.295-53.969l5.202-9.039 19.294-36.998 0.635-1.033 0.577-0.899 1.639-2.24c8.791-9.579 23.503-15.365 33.213-15.365 88.95 0 161.602-69.856 166.056-157.676l0.216-8.553v-247.253c0-114.005-90.034-207.040-202.857-211.857l-9.196-0.196h-429.227c-114.034 0-207.041 90.022-211.857 202.856l-0.196 9.197v247.253c0 91.793 74.452 166.229 166.272 166.229 9.676 0 24.409 5.795 33.213 15.365l0.303 0.358 0.38 0.497 2.194 3.366 19.24 36.939c17.15 31.169 35.806 52.005 63.491 63.024 50.731 20.172 232.422 20.172 283.113-0.004zM394.093 757.413c-9.446-3.76-17.998-12.462-27.125-27.549l-3.951-6.861-16.421-31.748-4.042-7.314c-3.374-5.612-6.749-10.349-10.602-14.548-19.645-21.353-47.85-33.686-72.923-35.752l-7.416-0.311-7.001-0.236c-50.898-3.442-91.592-44.126-95.035-94.996l-0.236-6.997v-247.253c0-79.031 61.941-143.616 139.93-147.834l8.123-0.219h429.227c79.016 0 143.615 61.966 147.834 139.933l0.219 8.121v247.253c0 54.092-42.059 98.395-95.271 101.993l-7.001 0.236-7.429 0.311c-25.111 2.066-53.317 14.402-72.936 35.78-3.802 4.143-7.159 8.846-10.513 14.411l-0.806 1.379-0.96 1.713-4.953 9.291-13.82 26.776c-9.332 16.943-17.878 27.298-27.104 32.502l-4 1.919-5.092 1.692c-43.91 12.411-196.647 11.847-230.697-1.692zM511.996 567.509c92.596 0 167.637-75.042 167.637-167.637s-75.042-167.637-167.637-167.637c-92.596 0-167.637 75.042-167.637 167.637s75.042 167.637 167.637 167.637zM511.996 503.509c-57.25 0-103.637-46.388-103.637-103.637s46.388-103.637 103.637-103.637c57.25 0 103.637 46.388 103.637 103.637s-46.388 103.637-103.637 103.637zM746.859 597.333c23.564 0 42.667-19.103 42.667-42.667 0-21.881-16.471-39.915-37.691-42.38l-4.976-0.287c-23.948 0-43.051 19.103-43.051 42.667 0 21.881 16.471 39.915 37.691 42.38l5.36 0.287z" />
<glyph unicode="&#xe909;" glyph-name="cart" d="M321.856 108.723c30.464 0 55.253-24.747 55.253-55.211s-24.789-55.253-55.253-55.253c-30.464 0-55.211 24.789-55.211 55.253s24.747 55.211 55.211 55.211zM803.149 108.723c30.507 0 55.296-24.747 55.296-55.211s-24.789-55.253-55.296-55.253c-30.464 0-55.211 24.789-55.211 55.253s24.747 55.211 55.211 55.211zM139.422 831.599l88.747-15.36c14.293-2.517 25.173-14.379 26.411-28.885l10.027-119.509 37.284-0.016c6.084-0.003 12.104-0.005 18.060-0.008l68.45-0.033c5.456-0.003 10.851-0.005 16.186-0.008l75.579-0.041c4.748-0.003 9.439-0.006 14.074-0.008l52.963-0.034c4.196-0.003 8.338-0.006 12.428-0.009l46.584-0.034c3.678-0.003 7.306-0.006 10.885-0.009l40.617-0.035c3.195-0.003 6.342-0.006 9.444-0.009l26.695-0.027c2.832-0.003 5.621-0.006 8.366-0.009l30.915-0.036c2.411-0.003 4.781-0.006 7.112-0.009l26.102-0.036c2.023-0.003 4.010-0.006 5.96-0.009l16.589-0.028c1.738-0.003 3.443-0.006 5.113-0.009l18.479-0.037c1.413-0.003 2.795-0.006 4.147-0.009l11.373-0.028c1.177-0.003 2.327-0.006 3.449-0.010l12.192-0.038c0.914-0.003 1.803-0.006 2.668-0.010l7.159-0.029c0.728-0.003 1.434-0.007 2.118-0.010l7.242-0.039c0.526-0.003 1.034-0.007 1.523-0.010l3.947-0.030c0.389-0.003 0.763-0.007 1.122-0.010l2.841-0.030c0.275-0.003 0.537-0.007 0.786-0.010l1.933-0.031c0.182-0.003 0.354-0.007 0.516-0.010l1.223-0.031c0.111-0.003 0.216-0.007 0.313-0.010l0.886-0.042c0.054-0.003 0.104-0.007 0.151-0.011 0.416-0.039 0.477-0.046 0.538-0.053 23.765-3.456 44.672-15.872 58.923-34.987 14.251-19.072 20.224-42.581 16.811-66.133l-40.491-279.808c-7.637-53.248-53.888-93.397-107.648-93.397h-465.963c-56.192 0-103.765 43.861-108.331 99.968l-39.083 464.811-64.299 11.093c-17.451 3.072-29.099 19.584-26.112 37.035 3.072 17.451 19.925 28.8 36.992 26.069zM293.33 603.83l-23.349 0.015 25.728-306.005c1.877-23.552 21.12-41.216 44.629-41.216h465.792c22.229 0 41.216 16.555 44.373 38.528l40.533 279.851c0.939 6.656-0.725 13.312-4.779 18.688-4.011 5.419-9.899 8.917-16.555 9.856-0.307-0.012-1.044-0.023-2.19-0.032l-4.641-0.027c-0.971-0.004-2.038-0.008-3.2-0.011l-24.171-0.037c-2.039-0.001-4.16-0.003-6.358-0.004l-56.831 0.002c-3.171 0.001-6.402 0.003-9.691 0.004l-64.858 0.039c-3.886 0.003-7.815 0.006-11.782 0.009l-36.7 0.029c-4.18 0.003-8.392 0.007-12.632 0.011l-38.872 0.034c-4.39 0.004-8.801 0.008-13.231 0.012l-26.777 0.025c-4.493 0.004-8.999 0.008-13.515 0.013l-40.862 0.038c-4.556 0.004-9.115 0.009-13.674 0.013l-27.334 0.025c-4.549 0.004-9.093 0.008-13.629 0.013l-27.102 0.025c-4.495 0.004-8.976 0.008-13.442 0.012l-39.702 0.034c-4.349 0.004-8.674 0.007-12.973 0.011l-50.173 0.038c-4.049 0.003-8.061 0.006-12.034 0.008zM737.604 510.135c17.664 0 32-14.336 32-32s-14.336-32-32-32h-118.272c-17.707 0-32 14.336-32 32s14.293 32 32 32h118.272z" />
<glyph unicode="&#xe90a;" glyph-name="chat" d="M501.265 917.321c122.581 0 237.781-47.659 324.309-134.229 178.859-178.859 178.859-469.845 0-648.704-87.68-87.723-205.739-134.144-325.333-134.144-65.195 0-130.816 13.781-192.213 42.197-18.091 7.253-35.029 14.080-47.189 14.080-13.995-0.085-32.811-6.571-50.987-12.843-37.291-12.8-83.712-28.757-118.059 5.461-34.219 34.261-18.432 80.555-5.717 117.803 6.272 18.347 12.715 37.291 12.715 51.627 0 11.776-5.675 26.795-14.379 48.427-79.915 172.587-42.965 380.587 92.587 516.053 86.528 86.571 201.685 134.272 324.267 134.272zM501.308 853.321c-105.515 0-204.629-41.045-279.083-115.541-116.651-116.565-148.395-295.552-79.061-445.44 9.984-24.704 19.627-48.768 19.627-73.771 0-24.96-8.576-50.091-16.128-72.277-6.229-18.261-15.659-45.824-9.6-51.883 5.931-6.144 33.664 3.541 51.968 9.813 21.973 7.509 46.891 16.128 71.595 16.299 24.747 0 48.085-9.387 72.789-19.328 151.339-69.973 330.325-38.144 446.933 78.421 153.856 153.941 153.856 404.352 0 558.208-74.496 74.496-173.568 115.499-279.040 115.499zM669.709 483.712c23.552 0 42.667-19.072 42.667-42.667s-19.115-42.667-42.667-42.667c-23.552 0-42.837 19.072-42.837 42.667s18.901 42.667 42.453 42.667h0.384zM498.667 483.712c23.552 0 42.667-19.072 42.667-42.667s-19.115-42.667-42.667-42.667c-23.552 0-42.837 19.072-42.837 42.667s18.859 42.667 42.453 42.667h0.384zM327.607 483.712c23.552 0 42.667-19.072 42.667-42.667s-19.115-42.667-42.667-42.667c-23.552 0-42.837 19.072-42.837 42.667s18.901 42.667 42.453 42.667h0.384z" />
<glyph unicode="&#xe90b;" glyph-name="clock" d="M512 874.667c235.264 0 426.667-191.403 426.667-426.667s-191.403-426.667-426.667-426.667c-235.264 0-426.667 191.403-426.667 426.667s191.403 426.667 426.667 426.667zM512 810.667c-199.979 0-362.667-162.688-362.667-362.667s162.688-362.667 362.667-362.667c199.979 0 362.667 162.688 362.667 362.667s-162.688 362.667-362.667 362.667zM497.545 657.263c17.707 0 32-14.336 32-32v-188.672l145.28-86.613c15.147-9.088 20.139-28.715 11.093-43.904-6.016-10.027-16.64-15.616-27.52-15.616-5.589 0-11.221 1.451-16.384 4.48l-160.853 95.957c-9.643 5.803-15.616 16.256-15.616 27.52v206.848c0 17.664 14.336 32 32 32z" />
<glyph unicode="&#xe90c;" glyph-name="cloud" d="M1024 338.286c0.002 0.331 0.004 0.724 0.004 1.116 0 80.655-55.551 148.334-130.48 166.866l-1.181 0.247c-4.016 128.895-108.497 232.098-237.527 234.055l-0.188 0.002c-0.813 0.010-1.772 0.016-2.733 0.016-74.803 0-141.28-35.648-183.37-90.882l-0.411-0.563c-25.004 31.313-63.176 51.2-105.994 51.2-0.022 0-0.044 0-0.067 0h0.003c-1.089 0.032-2.371 0.051-3.657 0.051-72.712 0-131.657-58.945-131.657-131.657 0-0.018 0-0.036 0-0.054v0.003-21.943h-32.914c-0.010 0-0.022 0-0.035 0-105.763 0-191.741-84.708-193.791-189.98l-0.003-0.192c0-107.049 86.78-193.829 193.829-193.829v0h654.629c96.95 0 175.543 78.593 175.543 175.543v0z" />
<glyph unicode="&#xe90d;" glyph-name="cog" d="M523.401 874.645c30.549 0 60.245-12.544 81.536-34.347 21.248-21.931 32.981-52.011 32.085-82.517 0.085-6.869 2.347-14.805 6.443-21.76 6.784-11.52 17.493-19.627 30.208-22.955 12.715-3.157 26.027-1.451 37.333 5.248 54.613 31.189 124.117 12.501 155.307-41.685l26.581-46.037c0.683-1.237 1.28-2.432 1.792-3.669 28.245-53.376 9.387-120.576-43.093-151.253-7.637-4.395-13.824-10.539-18.091-17.963-6.613-11.477-8.448-25.131-5.12-37.675 3.413-12.8 11.563-23.424 23.040-29.995 25.899-14.891 45.227-39.979 52.949-68.949 7.723-28.928 3.499-60.331-11.563-86.229l-28.331-47.189c-31.189-53.589-100.693-72.149-154.752-40.917-7.211 4.139-15.531 6.4-23.808 6.613h-0.256c-12.331 0-25.003-5.248-34.219-14.421-9.344-9.344-14.464-21.803-14.379-35.029-0.299-62.677-51.285-113.365-113.664-113.365h-53.461c-62.677 0-113.664 50.944-113.664 113.621-0.085 7.723-2.304 15.744-6.443 22.699-6.699 11.691-17.536 20.053-30.037 23.381-12.416 3.328-26.027 1.493-37.205-4.992-26.795-14.933-58.325-18.56-87.168-10.453-28.8 8.149-53.675 27.947-68.267 54.187l-26.667 45.952c-31.189 54.101-12.629 123.435 41.387 154.667 15.317 8.832 24.832 25.301 24.832 42.965s-9.515 34.176-24.832 43.008c-54.059 31.403-72.576 100.907-41.429 155.008l28.928 47.488c30.763 53.504 100.309 72.363 154.539 41.216 7.381-4.395 15.403-6.613 23.552-6.699 26.581 0 48.811 21.931 49.237 48.896-0.171 29.739 11.563 58.283 32.939 79.829 21.461 21.504 49.963 33.323 80.299 33.323h53.461zM523.401 810.645h-53.461c-13.227 0-25.6-5.163-34.944-14.464-9.301-9.344-14.379-21.76-14.293-34.987-0.896-62.379-51.883-112.597-113.621-112.597-19.797 0.213-38.869 5.547-55.424 15.445-23.253 13.227-53.632 5.077-67.243-18.603l-28.885-47.488c-13.227-22.955-5.12-53.291 18.432-66.987 34.944-20.224 56.747-57.941 56.747-98.389s-21.803-78.123-56.832-98.389c-23.424-13.568-31.531-43.733-17.963-67.2l26.923-46.421c6.656-11.989 17.536-20.651 30.123-24.192 12.544-3.499 26.368-2.005 37.888 4.395 16.939 9.941 36.651 15.104 56.448 15.104 9.771 0 19.541-1.237 29.099-3.797 28.843-7.765 53.888-27.051 68.736-52.949 9.643-16.256 14.976-35.243 15.147-54.613 0-27.733 22.272-49.963 49.664-49.963h53.461c27.264 0 49.536 22.101 49.664 49.365-0.171 30.123 11.605 58.752 33.152 80.299 21.248 21.248 50.944 34.005 80.64 33.152 19.456-0.469 38.187-5.717 54.699-15.104 23.765-13.611 54.101-5.504 67.84 17.963l28.331 47.232c6.315 10.88 8.149 24.533 4.779 37.12-3.328 12.587-11.691 23.509-22.955 29.952-26.368 15.189-45.184 39.68-52.992 69.035-7.723 28.8-3.499 60.245 11.563 86.144 9.813 17.067 24.192 31.445 41.429 41.344 23.125 13.525 31.232 43.776 17.792 67.328-0.555 0.939-1.067 1.92-1.493 2.944l-25.003 43.349c-13.611 23.68-43.904 31.829-67.669 18.304-25.685-15.189-56.235-19.541-85.589-11.819-29.312 7.595-53.888 26.155-69.205 52.352-9.813 16.384-15.147 35.456-15.317 54.869 0.384 14.592-4.736 27.691-14.037 37.291-9.259 9.557-22.272 14.976-35.627 14.976zM496.858 577.084c79.659 0 144.469-64.853 144.469-144.512s-64.811-144.427-144.469-144.427c-79.659 0-144.469 64.768-144.469 144.427s64.811 144.512 144.469 144.512zM496.858 513.084c-44.373 0-80.469-36.139-80.469-80.512s36.096-80.427 80.469-80.427c44.373 0 80.469 36.053 80.469 80.427s-36.096 80.512-80.469 80.512z" />
<glyph unicode="&#xe90e;" glyph-name="minus" d="M152 520v-144h720v144z" />
<glyph unicode="&#xe90f;" glyph-name="credit" d="M928.914 832h-833.829c-52.514 0-95.086-42.571-95.086-95.086v0-577.829c0-52.514 42.571-95.086 95.086-95.086h833.829c52.514 0 95.086 42.571 95.086 95.086v0 577.829c0 52.514-42.571 95.086-95.086 95.086v0zM95.086 766.171h833.829c16.399-1.363 29.641-13.362 32.873-29.021l0.041-0.237v-98.743h-896v98.743c1.685 15.433 13.824 27.572 29.11 29.244l0.147 0.013zM928.914 126.171h-833.829c-15.895 3.273-27.894 16.516-29.248 32.782l-0.009 0.133v288.914h896v-288.914c-2.945-16.86-16.054-29.969-32.673-32.879l-0.241-0.035zM128 320h65.829v-128h-65.829zM256 320h65.829v-128h-65.829zM384 320h65.829v-128h-65.829z" />
<glyph unicode="&#xe910;" glyph-name="cross-1" d="M187.608 765.705l3.098 3.589c11.361 11.361 29.138 12.393 41.666 3.098l3.589-3.098 276.039-276.025 276.039 276.025 3.589 3.098c12.527 9.295 30.305 8.262 41.666-3.098v0l3.098-3.589c9.295-12.527 8.262-30.305-3.098-41.666v0l-276.025-276.039 276.025-276.039 3.098-3.589c9.295-12.527 8.262-30.305-3.098-41.666-12.497-12.497-32.758-12.497-45.255 0v0l-276.039 276.025-276.039-276.025c-12.497-12.497-32.758-12.497-45.255 0-11.361 11.361-12.393 29.138-3.098 41.666l3.098 3.589 276.025 276.039-276.025 276.039c-11.361 11.361-12.393 29.138-3.098 41.666z" />
<glyph unicode="&#xe911;" glyph-name="cross-3" d="M674.88 448l321.6 320c12.501 12.603 20.225 29.959 20.225 49.12s-7.725 36.517-20.23 49.125l-63.995 63.995c-12.799 13.957-31.118 22.674-51.472 22.674-19.105 0-36.416-7.68-49.015-20.121l0.007 0.007-320-321.92-320 319.68c-12.603 12.501-29.959 20.225-49.12 20.225s-36.517-7.725-49.125-20.23l-63.995-63.995c-13.278-12.722-21.53-30.598-21.53-50.402 0-18.689 7.349-35.661 19.315-48.185l-0.025 0.027 320-320-319.68-320c-12.501-12.603-20.225-29.959-20.225-49.12s7.725-36.517 20.23-49.125l63.995-63.995c12.603-12.501 29.959-20.225 49.12-20.225s36.517 7.725 49.125 20.23l319.995 319.995 320-320c12.603-12.501 29.959-20.225 49.12-20.225s36.517 7.725 49.125 20.23l63.995 63.995c12.501 12.603 20.225 29.959 20.225 49.12s-7.725 36.517-20.23 49.125l0.005-0.005z" />
<glyph unicode="&#xe912;" glyph-name="cross-2" d="M633.6 448l365.12 365.12c13.897 15.233 22.409 35.587 22.409 57.929 0 47.541-38.539 86.080-86.080 86.080-22.342 0-42.696-8.512-57.997-22.47l0.068 0.061-365.12-365.12-365.12 365.12c-15.233 13.897-35.587 22.409-57.929 22.409-47.541 0-86.080-38.539-86.080-86.080 0-22.342 8.512-42.696 22.47-57.997l-0.061 0.068 365.12-365.12-365.12-365.12c-17.324-15.803-28.151-38.473-28.151-63.671 0-47.541 38.539-86.080 86.080-86.080 25.198 0 47.868 10.827 63.61 28.083l0.061 0.068 365.12 365.12 365.12-365.12c15.803-17.324 38.473-28.151 63.671-28.151 47.541 0 86.080 38.539 86.080 86.080 0 25.198-10.827 47.868-28.083 63.61l-0.068 0.061z" />
<glyph unicode="&#xe913;" glyph-name="cycle" d="M230.4 184.686c-62.387 69.050-100.56 161.015-100.56 261.895 0 192.205 138.573 352.045 321.263 385.062l2.383 0.357v128c-119.706-12.777-224.981-66.297-303.471-146.212l-0.072-0.074c-92.928-93.25-150.383-221.902-150.383-363.974 0-138.39 54.516-264.048 143.245-356.668l-0.176 0.185-109.714-109.714 343.771-18.286v365.714l-146.286-146.286zM647.314 930.743v-362.057l146.286 142.629c62.988-69.2 101.558-161.595 101.558-262.999 0-107.018-42.96-204.003-112.576-274.649l0.047 0.047c-55.794-55.286-128.667-93.421-210.006-105.793l-2.109-0.264v-131.657c256.308 32.548 452.484 249.251 452.484 511.773 0 137.656-53.939 262.713-141.834 355.19l0.207-0.22 109.714 109.714-343.771 18.286z" />
<glyph unicode="&#xe914;" glyph-name="docs-1" d="M678.771 874.667c134.144 0 224.256-91.861 224.256-228.565v-392.363c0-137.899-87.339-227.584-222.507-228.437l-328.235-0.128c-134.144 0-224.299 91.861-224.299 228.565v392.363c0 137.941 87.339 227.584 222.507 228.395l328.277 0.171zM678.771 810.667l-328.064-0.171c-99.328-0.597-158.72-62.037-158.72-164.395v-392.363c0-103.040 59.947-164.565 160.256-164.565l328.064 0.128c99.328 0.597 158.72 62.123 158.72 164.437v392.363c0 103.040-59.904 164.565-160.256 164.565zM670.541 299.789c17.664 0 32-14.336 32-32s-14.336-32-32-32h-308.053c-17.664 0-32 14.336-32 32s14.336 32 32 32h308.053zM670.541 478.413c17.664 0 32-14.336 32-32s-14.336-32-32-32h-308.053c-17.664 0-32 14.336-32 32s14.336 32 32 32h308.053zM480.021 656.623c17.664 0 32-14.336 32-32s-14.336-32-32-32h-117.547c-17.664 0-32 14.336-32 32s14.336 32 32 32h117.547z" />
<glyph unicode="&#xe915;" glyph-name="docs-2" d="M928 890.56h-399.68v9.6c0 33.049-26.791 59.84-59.84 59.84v0h-69.44c-33.049 0-59.84-26.791-59.84-59.84v0-9.92h-96c-9.013 0-16.32-7.307-16.32-16.32v0-131.2h-130.88c-9.013 0-16.32-7.307-16.32-16.32v0-608s0 0 0-1.6v-7.36l165.12-165.12h493.44c9.013 0 16.32 7.307 16.32 16.32v0 62.4h173.44c9.013 0 16.32 7.307 16.32 16.32v0 834.88c0 9.013-7.307 16.32-16.32 16.32v0zM371.84 900.16c-0.005 0.191-0.008 0.415-0.008 0.64 0 15.022 12.178 27.2 27.2 27.2 0.003 0 0.005 0 0.008 0h69.44c15.022 0 27.2-12.178 27.2-27.2v0-9.92h-123.84v9.28zM371.84 710.080h80.32v-80.32h-80.32v80.32zM448 596.8c-5.015-6.636-12.892-10.88-21.76-10.88v0h-26.24c-8.868 0-16.745 4.244-21.71 10.812l-0.050 0.068zM258.56 857.92h80.64v-115.2h-80.64zM243.52 39.36v-47.68l-109.44 109.44h109.44zM721.92 39.36v-71.36h-445.76v149.44c0 9.013-7.307 16.32-16.32 16.32v0h-148.8v576h228.16v-80.32h-131.52c-7.526-1.553-13.104-8.125-13.104-16s5.578-14.447 12.998-15.982l0.106-0.018h133.76c7.348-25.323 30.334-43.52 57.572-43.52 0.010 0 0.020 0 0.030 0h26.238c0.008 0 0.018 0 0.028 0 27.237 0 50.224 18.197 57.466 43.097l0.105 0.423h150.72c0.967-0.203 2.078-0.32 3.216-0.32 9.013 0 16.32 7.307 16.32 16.32s-7.307 16.32-16.32 16.32c-1.138 0-2.249-0.117-3.322-0.338l0.106 0.018h-148.8v80.64h237.12v-672zM913.92 55.68h-160v670.72c0 9.013-7.307 16.32-16.32 16.32h-252.8v79.36c-1.553 7.526-8.125 13.104-16 13.104s-14.447-5.578-15.982-12.998l-0.018-0.106v-79.36h-80.96v115.2h541.44v-802.24zM633.6 490.24h-425.92c-7.526-1.553-13.104-8.125-13.104-16s5.578-14.447 12.998-15.982l0.106-0.018h425.92c7.526 1.553 13.104 8.125 13.104 16s-5.578 14.447-12.998 15.982l-0.106 0.018zM633.6 352h-425.92c-0.967 0.203-2.078 0.32-3.216 0.32-9.013 0-16.32-7.307-16.32-16.32s7.307-16.32 16.32-16.32c1.138 0 2.249 0.117 3.322 0.338l-0.106-0.018h425.92c7.526 1.553 13.104 8.125 13.104 16s-5.578 14.447-12.998 15.982l-0.106 0.018zM633.6 212.16h-425.92c-7.526-1.553-13.104-8.125-13.104-16s5.578-14.447 12.998-15.982l0.106-0.018h425.92c7.526 1.553 13.104 8.125 13.104 16s-5.578 14.447-12.998 15.982l-0.106 0.018z" />
<glyph unicode="&#xe917;" glyph-name="ACT_Play" horiz-adv-x="1034" d="M517 960c282.77 0 512-229.23 512-512s-229.23-512-512-512c-282.77 0-512 229.23-512 512s229.23 512 512 512zM496.060 622.26c-18.132 7.593-60.691 25.325-86.815-0.549-7.343-7.343-29.671-29.421-29.621-177.876 0.097-135.047 20.139-159.457 28.753-168.122l0.589-0.587 0.279-0.276c10.44-10.39 23.227-14.236 36.714-14.236 17.433 0 36.065 6.394 52.399 13.187 41.909 17.483 205.949 108.994 205.949 174.43 0 69.832-182.272 163.191-208.247 174.030zM461.244 556.074c45.006-16.884 138.814-78.024 164.29-108.044-25.575-30.92-120.582-93.359-164.439-108.844-8.841 47.454-8.692 166.887 0.15 216.888z" />
<glyph unicode="&#xe918;" glyph-name="download-1" d="M314.334 630.076c17.664 0 32-14.336 32-32s-14.336-32-32-32h-40.149c-68.864 0-124.843-55.936-124.843-124.757v-208.427c0-69.077 56.149-125.227 125.227-125.227h475.307c68.779 0 124.8 56.021 124.8 124.8v208.384c0 69.077-56.192 125.227-125.184 125.227h-39.765c-17.664 0-32 14.336-32 32s14.336 32 32 32h39.765c104.32 0 189.184-84.907 189.184-189.227v-208.384c0-104.107-84.736-188.8-188.8-188.8h-475.307c-104.32 0-189.227 84.864-189.227 189.227v208.427c0 104.107 84.693 188.757 188.843 188.757h40.149zM512.043 831.996c17.664 0 32-14.336 32-32l-0.034-436.309 69.794 70.059c12.459 12.544 32.683 12.544 45.227 0.085 12.501-12.459 12.544-32.725 0.085-45.269l-124.129-124.615c-1.212-1.247-2.525-2.395-3.925-3.432l3.637 3.161c-1.374-1.393-2.865-2.645-4.45-3.746-0.968-0.668-1.951-1.274-2.967-1.825-0.49-0.267-1.004-0.528-1.525-0.775-0.93-0.443-1.886-0.842-2.864-1.194-0.49-0.173-0.979-0.336-1.472-0.486-1.201-0.373-2.438-0.673-3.699-0.899-0.284-0.047-0.543-0.090-0.802-0.13-1.017-0.16-2.079-0.27-3.155-0.327-0.58-0.030-1.15-0.046-1.721-0.046l-1.698 0.128-2.642 0.164c-0.188 0.026-0.376 0.053-0.563 0.082l4.904-0.374c-1.907 0-3.798 0.17-5.653 0.502-1.283 0.226-2.516 0.526-3.719 0.894-0.481 0.151-0.953 0.308-1.421 0.475-0.981 0.348-1.949 0.75-2.892 1.197-0.573 0.271-1.142 0.562-1.703 0.87-0.788 0.435-1.548 0.895-2.286 1.386-0.506 0.334-1.011 0.692-1.507 1.065-1.219 0.915-2.369 1.913-3.443 2.987l-0.032 0.053-124.416 124.885c-12.459 12.544-12.416 32.811 0.085 45.269 12.544 12.459 32.768 12.459 45.227-0.085l69.726-70.059 0.034 436.309c0 17.664 14.336 32 32 32z" />
<glyph unicode="&#xe919;" glyph-name="download-2" d="M596.305 874.654c1.836 0 3.636-0.155 5.388-0.452l5.765-0.034c8.704 0 17.024-3.541 23.083-9.813l216.149-225.152c5.675-5.931 8.879-13.909 8.879-22.144v-392.107c0.679-107.051-82.777-194.048-189.999-197.888h-347.307c-104.116 2.238-187.618 86.372-190.192 189.43l-0.016 466.57c2.517 105.856 89.899 191.104 194.944 191.104l267.917 0.034c1.752 0.297 3.552 0.452 5.388 0.452zM564.279 810.185l-241.152-0.017c-70.699 0-129.408-57.259-131.072-127.872v-457.344c-1.536-72.576 55.637-132.309 127.531-133.888h344.875c71.211 2.56 127.573 61.312 127.107 133.675l-0.003 351.974-85.692-0.043c-78.123 0.213-141.568 63.872-141.568 141.867l-0.026 91.648zM475.422 569.207c17.664 0 32-14.336 32-32l-0.017-180.143 45.329 45.487c12.459 12.544 32.725 12.544 45.269 0.085 12.501-12.459 12.544-32.725 0.085-45.269l-98.945-99.38c-2.51-2.771-5.497-5.1-8.833-6.858-0.297-0.092-0.567-0.229-0.838-0.362-1.241-0.673-2.553-1.213-3.906-1.665-0.132 0.017-0.261-0.026-0.391-0.067-3.072-1.044-6.351-1.576-9.754-1.576-3.308 0-6.499 0.503-9.502 1.436-0.472 0.179-0.975 0.347-1.473 0.528-0.932 0.311-1.825 0.685-2.696 1.098-0.521 0.268-1.034 0.527-1.54 0.799-1.012 0.529-2.003 1.137-2.956 1.797-0.326 0.236-0.649 0.468-0.968 0.706-1.374 1.017-2.66 2.149-3.849 3.376l-99.769 100.168c-12.459 12.544-12.416 32.811 0.085 45.269 12.544 12.459 32.811 12.459 45.269-0.085l45.38-45.572 0.017 180.228c0 17.664 14.336 32 32 32zM628.279 774.302l0.026-55.765c0-42.837 34.816-77.739 77.653-77.867l50.534 0.043-128.213 133.589z" />
<glyph unicode="&#xe91a;" glyph-name="download-3" d="M512 413.76l256 272.96h-192v273.28h-128v-272.96h-192zM744.64 525.44l-72.64-77.44 260.16-103.36-420.16-166.4-421.12 167.36 261.12 102.4-72.64 77.44-279.36-111.68v-272.96l512-204.8 512 204.8v272.96z" />
<glyph unicode="&#xe91b;" glyph-name="edit" d="M885.354 87.913c17.664 0 32-14.336 32-32s-14.336-32-32-32h-309.461c-17.664 0-32 14.336-32 32s14.336 32 32 32h309.461zM687.628 804.111c2.133-1.664 73.515-57.131 73.515-57.131 25.941-15.445 46.208-43.051 53.888-75.733 7.637-32.341 2.091-65.707-15.701-93.909-0.119-0.188-0.237-0.374-0.649-0.927l-0.321-0.427c-2.888-3.806-15.442-19.68-78.804-99.066-0.589-1.040-1.255-2.015-1.984-2.962-1.069-1.396-2.231-2.679-3.472-3.847-4.322-5.441-8.887-11.159-13.686-17.171l-9.725-12.18c-20.066-25.13-43.867-54.928-72.104-90.272l-14.491-18.138c-54.514-68.231-124.33-155.591-213.766-267.48-19.584-24.405-48.939-38.613-80.469-38.997l-155.691-1.963c-14.805 0-27.691 10.155-31.147 24.619l-34.944 148.096c-7.211 30.677-0.043 62.336 19.627 86.912l401.92 502.699c0.171 0.171 0.299 0.384 0.469 0.555 44.075 52.693 123.776 60.459 177.536 17.323zM464.811 627.755l-307.146-384.198c-7.296-9.131-9.984-20.907-7.296-32.213l29.056-123.093 129.664 1.621c12.331 0.128 23.723 5.632 31.275 15.019 38.89 48.658 87.768 109.814 138.020 172.699l35.589 44.536c47.129 58.979 93.688 117.254 132.646 166.031l-181.808 139.6zM559.372 745.957l-54.582-68.197 181.793-139.56c34.991 43.829 58.011 72.695 60.139 75.447 6.997 11.349 9.728 27.392 6.059 42.837-3.755 15.829-13.611 29.269-27.819 37.845-3.029 2.091-74.923 57.899-77.141 59.648-27.051 21.675-66.517 17.92-88.448-8.021z" />
<glyph unicode="&#xe91c;" glyph-name="email" d="M516.16 360.32l-462.080 405.44h923.84zM332.16 448l-323.84-284.16v568.64zM374.080 411.2l142.080-123.2 142.080 124.8 320-280.96h-924.48zM699.84 448l324.16 284.48v-568.64z" />
<glyph unicode="&#xe91d;" glyph-name="Burger-Menu" d="M976 144.001c26.509 0 48-21.49 48-48s-21.49-48-48-48h-928c-26.509 0-48 21.49-48 48s21.49 48 48 48h928zM976 495.999c26.509 0 48-21.49 48-48s-21.49-48-48-48h-928c-26.509 0-48 21.49-48 48s21.49 48 48 48h928zM976 848c26.509 0 48-21.49 48-48s-21.49-48-48-48h-928c-26.509 0-48 21.49-48 48s21.49 48 48 48h928z" />
<glyph unicode="&#xe91e;" glyph-name="flow-tree" d="M943.543 188.343v124.343c0.099 2.229 0.156 4.843 0.156 7.47 0 98.969-80.231 179.2-179.2 179.2-2.627 0-5.241-0.057-7.841-0.168l0.371 0.013h-109.714c-76.8 0-84.114 36.571-84.114 58.514v149.943c46.903 21.16 79.219 67.003 80.454 120.528l0.003 0.157c0 72.712-58.945 131.657-131.657 131.657s-131.657-58.945-131.657-131.657v0c1.238-53.682 33.554-99.526 79.605-120.341l0.852-0.345v-149.943c0-14.629-3.657-58.514-84.114-58.514h-109.714c-2.229 0.099-4.843 0.156-7.47 0.156-98.969 0-179.2-80.231-179.2-179.2 0-2.627 0.057-5.241 0.168-7.841l-0.013 0.371v-124.343c-46.903-21.16-79.219-67.003-80.454-120.528l-0.003-0.157c0-72.712 58.945-131.657 131.657-131.657v0c71.122 2.038 128 60.18 128 131.606 0 0.018 0 0.036 0 0.054v-0.003c0.002 0.297 0.004 0.648 0.004 1 0 52.819-31.104 98.374-75.995 119.347l-0.809 0.339v124.343c-0.056 1.118-0.087 2.427-0.087 3.744 0 44.435 36.022 80.457 80.457 80.457 1.317 0 2.627-0.032 3.928-0.094l-0.184 0.007h109.714c2.308-0.093 5.016-0.146 7.737-0.146 27.519 0 53.77 5.428 77.741 15.271l-1.364-0.496v-223.086c-46.903-21.16-79.219-67.003-80.454-120.528l-0.003-0.157c0-72.712 58.945-131.657 131.657-131.657s131.657 58.945 131.657 131.657v0c-1.238 53.682-33.554 99.526-79.605 120.341l-0.852 0.345v223.086c22.607-9.347 48.858-14.775 76.377-14.775 2.721 0 5.43 0.053 8.125 0.158l-0.388-0.012h109.714c1.118 0.056 2.427 0.087 3.744 0.087 44.435 0 80.457-36.022 80.457-80.457 0-1.317-0.032-2.627-0.094-3.928l0.007 0.184v-124.343c-45.7-21.312-76.804-66.867-76.804-119.686 0-0.352 0.001-0.703 0.004-1.054v0.054c-1.163-6.574-1.829-14.143-1.829-21.867 0-72.712 58.945-131.657 131.657-131.657s131.657 58.945 131.657 131.657c0 7.724-0.665 15.293-1.941 22.652l0.113-0.785c-1.238 53.682-33.554 99.526-79.605 120.341l-0.852 0.345zM204.8 67.657c0.058-1.092 0.091-2.371 0.091-3.657 0-40.396-32.747-73.143-73.143-73.143-0.032 0-0.064 0-0.097 0h0.005c-42.415 0-76.8 34.385-76.8 76.8v0c0 0.027 0 0.059 0 0.091 0 40.396 32.747 73.143 73.143 73.143 1.286 0 2.565-0.033 3.835-0.099l-0.178 0.007c40.396 0 73.143-32.747 73.143-73.143v0zM435.2 828.343c0 42.415 34.385 76.8 76.8 76.8s76.8-34.385 76.8-76.8v0c0-42.415-34.385-76.8-76.8-76.8s-76.8 34.385-76.8 76.8v0zM588.8 67.657c0.055-1.092 0.087-2.371 0.087-3.657 0-42.415-34.385-76.8-76.8-76.8s-76.8 34.385-76.8 76.8c0 42.385 34.335 76.75 76.708 76.8h0.005c0.026 0 0.056 0 0.087 0 41.129 0 74.707-32.331 76.706-72.964l0.007-0.179zM892.343-9.143c-0.027 0-0.059 0-0.091 0-40.396 0-73.143 32.747-73.143 73.143 0 1.286 0.033 2.565 0.099 3.835l-0.007-0.178c0 40.396 32.747 73.143 73.143 73.143v0c1.092 0.058 2.371 0.091 3.657 0.091 40.396 0 73.143-32.747 73.143-73.143 0-0.032 0-0.064 0-0.097v0.005c0-42.415-34.385-76.8-76.8-76.8v0z" />
<glyph unicode="&#xe91f;" glyph-name="folder" d="M411.418 874.667c40.576-0.043 79.232-19.413 103.467-51.797l38.869-51.712c12.331-16.384 31.915-26.155 52.395-26.197h120.704c164.779 0 241.536-84.437 241.536-265.728l-1.195-211.925c-0.043-169.301-105.259-274.517-274.645-274.517h-332.032c-169.728 0-275.2 105.259-275.2 274.645v332.757c0 182.144 81.024 274.475 240.768 274.475h85.333zM411.375 810.667h-85.291c-123.904 0-176.768-62.976-176.768-210.475v-332.757c0-135.851 75.008-210.645 211.2-210.645h332.032c135.851 0 210.645 74.795 210.645 210.645v0.128l1.195 211.84c0 145.024-49.749 201.557-177.536 201.557h-120.747c-40.491 0.043-79.147 19.371-103.467 51.712l-38.955 51.797c-12.245 16.427-31.829 26.155-52.309 26.197zM713.207 353.587c17.664 0 32-14.336 32-32s-14.336-32-32-32h-372.693c-17.664 0-32 14.336-32 32s14.336 32 32 32h372.693z" />
<glyph unicode="&#xe920;" glyph-name="User1" d="M512.022 361.859l4.818-0.001 10.777-0.036c82.372-0.543 270.613-8.864 270.613-136.453 0-126.752-181.68-135.018-269.329-135.557h-32.474c-82.377 0.542-270.655 8.853-270.655 136.282 0 126.911 188.279 135.188 270.655 135.728l10.778 0.036c1.672 0.001 3.279 0.001 4.818 0.001zM512.022 297.859c-101.376 0-222.251-12.459-222.251-71.765 0-57.965 113.66-71.516 212.985-72.284l9.266-0.036c101.376 0 222.208 12.416 222.208 71.595 0 59.904-120.832 72.491-222.208 72.491zM851.375 379.173c103.381-15.488 125.099-64.043 125.099-102.059 0-23.211-9.131-65.579-70.144-88.832-3.755-1.408-7.595-2.091-11.392-2.091-12.885 0-25.045 7.851-29.909 20.608-6.315 16.512 2.005 35.029 18.517 41.301 28.928 11.008 28.928 23.168 28.928 29.013 0 18.688-23.765 31.744-70.613 38.741-17.451 2.645-29.525 18.901-26.923 36.437 2.603 17.493 18.816 29.141 36.437 26.88zM209.063 352.293c2.603-17.536-9.472-33.792-26.923-36.437-46.848-6.997-70.613-20.053-70.613-38.741 0-5.845 0-17.963 28.971-29.013 16.512-6.272 24.832-24.789 18.517-41.301-4.864-12.757-17.024-20.608-29.909-20.608-3.797 0-7.637 0.683-11.392 2.091-61.056 23.296-70.187 65.664-70.187 88.832 0 37.973 21.717 86.571 125.141 102.059 17.621 2.219 33.749-9.387 36.395-26.88zM512.022 806.189c107.52 0 194.944-87.467 194.944-194.944s-87.424-194.944-194.944-194.944h-1.152c-52.053 0.171-100.821 20.565-137.344 57.429-36.608 36.821-56.619 85.717-56.407 137.643 0 107.349 87.426 194.816 194.903 194.816zM512.022 742.189c-72.192 0-130.902-58.752-130.902-130.944-0.127-34.987 13.27-67.712 37.804-92.416s57.216-38.4 92.032-38.528l1.067-32v32c72.192 0 130.944 58.709 130.944 130.944 0 72.192-58.752 130.944-130.944 130.944zM776.086 764.397c75.008-12.331 129.493-76.501 129.493-152.576-0.171-76.587-57.387-142.293-133.12-152.917-1.493-0.213-2.987-0.299-4.437-0.299-15.701 0-29.397 11.563-31.659 27.563-2.432 17.536 9.728 33.707 27.264 36.139 44.373 6.229 77.867 44.715 77.952 89.6 0 44.501-31.915 82.133-75.904 89.344-17.408 2.859-29.227 19.328-26.368 36.779 2.901 17.451 19.243 29.141 36.779 26.368zM284.737 738.029c2.859-17.451-8.96-33.92-26.368-36.779-43.989-7.211-75.904-44.843-75.904-89.429 0.085-44.8 33.579-83.328 77.909-89.515 17.536-2.432 29.696-18.603 27.264-36.139-2.261-16-15.957-27.563-31.659-27.563-1.451 0-2.944 0.085-4.437 0.299-75.733 10.624-132.907 76.331-133.077 152.832 0 76.16 54.485 140.331 129.493 152.661 17.963 2.816 33.877-9.003 36.779-26.368z" />
<glyph unicode="&#xe921;" glyph-name="User" d="M389.106 323.514c167.031 0 389.105-18.81 389.105-181.534 0-171.414-258.765-181.697-369.763-182.315h-40.3c-118.349 0.614-368.148 10.841-368.148 181.29 0 171.606 258.765 181.903 369.763 182.52l13.336 0.038c2.078 0.001 4.082 0.001 6.007 0.001zM389.106 246.637c-142.43 0-312.227-18.297-312.227-105.682 0-69.292 105.067-104.452 312.227-104.452s312.227 35.518 312.227 105.477c0 69.446-105.067 104.656-312.227 104.656zM856.252 347.455c138.688-20.757 167.748-84.975 167.748-135.151 0-37.363-16.144-87.948-93.176-117.11-4.459-1.691-9.072-2.512-13.633-2.512-15.529 0-30.136 9.481-35.927 24.806-7.534 19.835 2.46 42.077 22.295 49.561 43.565 16.504 43.565 36.646 43.565 45.256 0 29.060-34.39 48.946-102.196 59.042-21.013 3.177-35.518 22.756-32.391 43.718 3.177 21.013 23.115 35.108 43.718 32.391zM389.106 936.335c145.094 0 263.181-118.085 263.181-263.178 0.305-69.907-26.808-135.92-76.214-185.635-49.304-49.765-115.163-77.288-185.224-77.545h-1.743c-145.146 0-263.23 118.085-263.23 263.178s118.085 263.178 263.23 263.178zM752.359 878.738c100.71-16.504 173.796-102.657 173.796-204.803-0.205-102.761-76.93-191.017-178.511-205.264-1.793-0.256-3.588-0.359-5.381-0.359-18.86 0-35.312 13.89-38.029 33.109-2.921 21.013 11.685 40.489 32.698 43.411 63.962 8.969 112.242 64.475 112.344 129.155 0 64.27-46.025 118.494-109.32 128.847-20.962 3.485-35.158 23.217-31.725 44.18s23.269 35.056 44.128 31.725zM389.106 859.457c-102.761 0-186.352-83.592-186.352-186.301s83.592-186.301 186.352-186.301h1.589c49.407 0.205 95.944 19.629 130.846 54.839 34.954 35.108 54.070 81.798 53.867 131.308 0 102.863-83.594 186.454-186.303 186.454z" />
<glyph unicode="&#xe922;" glyph-name="heart" d="M522.014 787.669c69.376 43.861 161.536 55.979 241.152 30.464 173.184-55.851 226.944-244.651 178.859-394.88-74.197-235.947-391.083-411.947-404.523-419.328-4.779-2.645-10.069-3.968-15.36-3.968s-10.539 1.28-15.317 3.883c-13.355 7.296-327.936 180.693-404.608 419.371-0.043 0-0.043 0.043-0.043 0.043-48.128 150.272 5.461 339.115 178.475 394.88 81.237 26.283 169.771 14.72 241.365-30.464zM300.275 757.205c-139.989-45.141-175.147-195.712-137.131-314.453 59.819-186.112 296.149-336.597 358.955-373.845 63.019 37.632 301.056 189.781 358.955 373.675 38.016 118.869 2.731 269.44-137.472 314.624-67.925 21.803-147.157 8.533-201.856-33.792-11.435-8.789-27.307-8.96-38.827-0.256-57.941 43.563-133.632 56.32-202.624 34.048zM702.622 672.474c58.155-18.816 98.901-70.315 103.893-131.2 1.408-17.621-11.691-33.067-29.312-34.475-0.896-0.085-1.749-0.128-2.645-0.128-16.512 0-30.507 12.672-31.872 29.397-2.816 35.072-26.283 64.683-59.691 75.477-16.853 5.461-26.069 23.509-20.651 40.277 5.504 16.811 23.381 25.941 40.277 20.651z" />
<glyph unicode="&#xe923;" glyph-name="home" d="M585.25 307.571c51.371 0 93.184-41.515 93.184-92.544v-131.243c0-10.965 8.789-19.755 20.053-20.011h81.323c64.085 0 116.181 51.456 116.181 114.688v372.224c-0.299 21.76-10.667 42.24-28.459 55.851l-281.301 224.341c-37.76 29.909-90.581 29.909-128.469-0.085l-279.381-224.171c-18.475-14.037-28.843-34.517-29.056-56.661v-371.499c0-63.232 52.096-114.688 116.181-114.688h82.091c11.563 0 20.949 9.173 20.949 20.437 0 2.475 0.299 4.949 0.811 7.296v123.52c0 50.731 41.557 92.203 92.544 92.544h123.349zM779.81-0.226h-82.091c-47.019 1.109-83.285 38.016-83.285 84.011v131.243c0 15.744-13.099 28.544-29.184 28.544h-123.136c-15.744-0.085-28.757-12.928-28.757-28.544v-130.816c0-3.2-0.427-6.272-1.323-9.173-4.608-42.24-40.704-75.264-84.437-75.264h-82.091c-99.371 0-180.181 80.171-180.181 178.688v371.797c0.427 42.411 19.968 81.237 53.717 106.795l278.827 223.787c61.397 48.64 146.944 48.64 208.213 0.085l280.832-224c32.981-25.131 52.523-63.872 53.077-105.771v-372.693c0-98.517-80.811-178.688-180.181-178.688v0z" />
<glyph unicode="&#xe924;" glyph-name="image" d="M695.484 874.667c144.427 0 241.493-101.163 241.493-251.691v-347.819c0-150.528-97.067-251.691-241.493-251.691h-369.067c-144.213 0-241.067 101.163-241.067 251.691v347.819c0 150.528 96.853 251.691 241.067 251.691h369.067zM695.484 810.667h-369.067c-107.563 0-177.067-73.685-177.067-187.691v-347.819c0-114.048 69.504-187.691 177.067-187.691h369.067c107.819 0 177.493 73.643 177.493 187.691v347.819c0 114.005-69.675 187.691-177.493 187.691zM722.748 443.759c0.27-0.22 0.536-0.438 1.092-0.958l0.825-0.787c0.167-0.162 0.35-0.34 0.552-0.538l2.382-2.364c7.695-7.704 28.963-29.425 92.345-94.511 12.331-12.629 12.117-32.896-0.555-45.227-12.629-12.416-32.939-12.032-45.269 0.597 0 0-87.424 89.728-93.653 95.787-6.613 5.419-17.237 8.576-27.691 7.552-10.624-1.067-20.181-6.144-26.965-14.379-99.157-120.277-100.352-121.429-101.973-123.008-36.608-35.925-95.701-35.328-131.669 1.365 0 0-39.68 40.277-40.363 41.088-9.856 9.131-27.435 8.533-37.973-2.603l-65.28-68.821c-6.315-6.656-14.763-9.984-23.211-9.984-7.936 0-15.829 2.901-22.016 8.789-12.843 12.117-13.355 32.427-1.195 45.184l65.195 68.821c34.517 36.651 92.757 38.443 129.579 3.883l40.875-41.472c11.392-11.52 29.909-11.733 41.344-0.469 4.309 5.077 97.237 117.931 97.237 117.931 17.664 21.419 42.581 34.645 70.272 37.376 27.733 2.432 54.656-5.632 76.117-23.253zM365.167 677.167c58.965-0.043 106.88-48 106.88-106.837 0-58.923-47.957-106.88-106.88-106.88s-106.837 47.957-106.837 106.88c0 58.923 47.915 106.837 106.837 106.837zM365.124 613.167c-23.595 0-42.795-19.2-42.795-42.837s19.2-42.88 42.837-42.88c23.637 0 42.88 19.243 42.88 42.88 0 23.595-19.243 42.795-42.923 42.837z" />
<glyph unicode="&#xe925;" glyph-name="info" d="M696.922 874.667c144.597 0 241.749-101.461 241.749-252.416v-348.501c0-150.955-97.152-252.416-241.835-252.416h-369.835c-144.555 0-241.664 101.461-241.664 252.416v348.501c0 150.955 97.109 252.416 241.664 252.416h369.92zM696.922 810.667h-369.92c-107.904 0-177.664-73.941-177.664-188.416v-348.501c0-114.475 69.76-188.416 177.664-188.416h369.835c108.032 0 177.835 73.941 177.835 188.416v348.501c0 114.475-69.803 188.416-177.749 188.416zM511.748 480c17.664 0 32-14.336 32-32v-170.667c0-17.664-14.336-32-32-32s-32 14.336-32 32v170.667c0 17.664 14.336 32 32 32zM511.957 652.625c23.595 0 42.667-19.072 42.667-42.667s-19.072-42.667-42.667-42.667c-23.595 0-42.88 19.072-42.88 42.667s18.901 42.667 42.453 42.667h0.427z" />
<glyph unicode="&#xe926;" glyph-name="key" d="M696.922 874.667c144.597 0 241.749-101.461 241.749-252.416v-348.501c0-150.955-97.152-252.416-241.835-252.416h-369.835c-144.555 0-241.664 101.461-241.664 252.416v348.501c0 150.955 97.109 252.416 241.664 252.416h369.92zM696.922 810.667h-369.92c-107.904 0-177.664-73.941-177.664-188.416v-348.501c0-114.475 69.76-188.416 177.664-188.416h369.835c108.032 0 177.835 73.941 177.835 188.416v348.501c0 114.475-69.803 188.416-177.749 188.416zM377.041 559.002c50.146-0.035 92.529-33.349 106.303-78.956l242.408-0.025c17.664 0 32-14.336 32-32v-79.061c0-17.664-14.336-32-32-32s-32 14.336-32 32v47.061l-56.691 0.021 0.021-47.083c0-17.664-14.336-32-32-32s-32 14.336-32 32l-0.021 47.083-89.698-0.041c-13.766-45.66-56.214-79.037-106.322-79.037-61.227 0-111.019 49.835-111.019 111.019 0 61.227 49.792 111.019 111.019 111.019zM377.126 495.002c-26.027 0-47.104-21.077-47.104-47.019s21.077-47.019 47.019-47.019c25.899 0 47.019 21.077 47.019 47.019 0 25.899-21.077 46.976-46.933 47.019z" />
<glyph unicode="&#xe927;" glyph-name="link" d="M377.6 153.6l-50.88-50.56c-20.524-20.363-48.793-32.947-80-32.947s-59.476 12.584-80.007 32.954l0.007-0.007c-20.276 20.027-32.834 47.827-32.834 78.56s12.558 58.533 32.823 78.549l0.011 0.011 186.88 185.6c38.72 38.4 111.68 96 164.8 42.24 11.402-11.603 27.261-18.794 44.8-18.794 34.68 0 62.794 28.114 62.794 62.794 0 17.141-6.868 32.678-18.002 44.009l0.009-0.009c-90.24 89.6-224 72.96-340.16-42.24l-186.88-185.6c-42.981-42.583-69.593-101.624-69.593-166.88s26.612-124.298 69.576-166.862l0.018-0.018c43.034-42.516 102.21-68.778 167.52-68.778s124.486 26.262 167.544 68.802l-0.024-0.023 49.28 49.6c11.631 11.389 18.842 27.252 18.842 44.8 0 34.618-28.064 62.682-62.682 62.682-17.070 0-32.547-6.824-43.851-17.892l0.011 0.011zM944.32 874.24c-96 96-232.64 101.44-322.56 12.48l-64-64c-12.27-11.375-19.924-27.579-19.924-45.572 0-34.286 27.794-62.080 62.080-62.080 18.47 0 35.057 8.066 46.428 20.868l0.055 0.064 64 64c46.4 46.080 107.52 26.88 147.2-12.48 20.276-20.027 32.834-47.827 32.834-78.56s-12.558-58.533-32.823-78.549l-0.011-0.011-199.36-197.76c-91.2-90.56-134.080-48-152.32-29.76-11.519 11.479-27.411 18.576-44.96 18.576-35.178 0-63.696-28.518-63.696-63.696 0-17.629 7.162-33.585 18.735-45.118l0.002-0.002c35.156-37.438 84.642-61.063 139.655-62.077l0.185-0.003c75.060 4.971 141.206 39.472 187.589 91.871l0.251 0.289 199.36 197.76c42.981 42.583 69.593 101.624 69.593 166.88s-26.612 124.298-69.576 166.862l-0.018 0.018z" />
<glyph unicode="&#xe928;" glyph-name="lock" d="M527.996 874.581c124.587 0 226.048-101.461 226.048-226.176l-0.005-67.268c75.742-26.36 130.228-98.467 130.228-183.091v-182.997c0-106.88-86.912-193.792-193.792-193.792h-326.016c-106.88 0-193.792 86.912-193.792 193.792v182.997c0 84.609 54.465 156.704 130.185 183.076l0.030 67.283c0.256 61.44 24.021 118.144 66.901 160.64 42.923 42.539 99.584 67.157 160.213 65.536zM690.475 527.838h-326.016c-71.595 0-129.792-58.197-129.792-129.792v-182.997c0-71.595 58.197-129.792 129.792-129.792h326.016c71.552 0 129.792 58.197 129.792 129.792v182.997c0 71.595-58.24 129.792-129.792 129.792zM527.458 385.937c17.664 0 32-14.336 32-32v-94.763c0-17.664-14.336-32-32-32s-32 14.336-32 32v94.763c0 17.664 14.336 32 32 32zM527.868 810.581h-0.683c-43.221 0-83.712-16.64-114.304-46.976-30.805-30.464-47.829-71.125-48-114.475l-0.038-57.269h325.163l0.038 56.543c0 89.429-72.747 162.176-162.176 162.176z" />
<glyph unicode="&#xe929;" glyph-name="loop" d="M128 638.171h640v-190.171l256 256-256 256v-193.829h-768v-384h128zM896 254.171h-640v193.829l-256-256 256-256v190.171h768v384h-128z" />
<glyph unicode="&#xe92a;" glyph-name="megaphone" d="M917.943 616.229c-87.771 212.114-234.057 369.371-307.2 340.114s73.143-292.571-537.6-541.257c-51.2-21.943-65.829-109.714-43.886-160.914s95.086-102.4 146.286-80.457l43.886 14.629c36.571-51.2 76.8-21.943 91.429-51.2s54.857-124.343 65.829-153.6 40.229-54.857 62.171-47.543l117.029 47.543c15.829 2.577 27.765 16.149 27.765 32.509 0 6.989-2.178 13.469-5.893 18.798l0.071-0.107c-7.314 18.286-43.886 25.6-54.857 47.543s-43.886 98.743-51.2 124.343 14.629 58.514 54.857 62.171c277.943 29.257 329.143-142.629 424.229-102.4s58.514 241.371-32.914 449.829zM888.686 276.114c-18.286-7.314-128 80.457-197.486 245.029s-62.171 310.857-43.886 318.171 124.343-98.743 193.829-263.314 62.171-292.571 47.543-299.886z" />
<glyph unicode="&#xe92b;" glyph-name="Arrow---Down-Circle" d="M512 874.667c235.264 0 426.667-191.403 426.667-426.667s-191.403-426.667-426.667-426.667c-235.264 0-426.667 191.403-426.667 426.667s191.403 426.667 426.667 426.667zM512 810.667c-199.979 0-362.667-162.688-362.667-362.667s162.688-362.667 362.667-362.667c199.979 0 362.667 162.688 362.667 362.667s-162.688 362.667-362.667 362.667zM682.709 532.228c12.501-12.459 12.544-32.725 0.085-45.269l-148.139-148.736c-4.779-4.847-10.977-7.974-17.613-9.030l-5.043-0.399c-8.491 0-16.683 3.371-22.656 9.429l-148.096 148.736c-12.501 12.544-12.416 32.811 0.085 45.269 12.544 12.459 32.811 12.459 45.269-0.085l125.397-126.037 125.44 126.037c12.459 12.544 32.725 12.544 45.269 0.085z" />
<glyph unicode="&#xe92c;" glyph-name="mobile" d="M702.171 960h-394.971c-58.574 0-106.057-47.483-106.057-106.057v0-811.886c0-58.574 47.483-106.057 106.057-106.057v0h394.971c58.574 0 106.057 47.483 106.057 106.057v0 811.886c0 58.574-47.483 106.057-106.057 106.057v0zM504.686-23.771c-40.229 0-73.143 25.6-73.143 54.857s32.914 51.2 73.143 51.2 73.143-21.943 73.143-51.2-32.914-54.857-73.143-54.857zM724.114 133.486h-438.857v691.2h438.857z" />
<glyph unicode="&#xe92d;" glyph-name="mouse" d="M199.68 448c0 64 0 128 0 192 0.863 173.779 141.937 314.32 315.836 314.32 124.532 0 232.231-72.073 283.659-176.782l0.825-1.858c20.11-39.546 31.923-86.224 32-135.655v-0.025c0-128 2.24-256 0-384 0.023-1.382 0.035-3.012 0.035-4.645 0-124.16-74.276-230.971-180.818-278.424l-1.937-0.771c-38.752-19.725-84.51-31.281-132.967-31.281-43.973 0-85.723 9.517-123.303 26.602l1.87-0.761c-114.195 48.171-193.119 158.731-194.239 287.858l-0.001 0.142c-1.28 65.28-0.96 129.28-0.96 193.28zM263.68 448c0-64 0-128 0-192-0.004-0.532-0.006-1.161-0.006-1.79 0-12.006 0.816-23.822 2.396-35.395l-0.15 1.345c22.027-119.202 125.169-208.296 249.119-208.296 136.635 0 247.984 108.261 252.947 243.683l0.013 0.453q0 192 0 384c0.102 2.681 0.16 5.83 0.16 8.993 0 139.618-113.182 252.8-252.8 252.8s-252.8-113.182-252.8-252.8c0-3.162 0.058-6.311 0.173-9.446l-0.013 0.453q0-96 0-190.080zM577.6 565.76c-5.088-30.691-31.436-53.806-63.183-53.806-0.85 0-1.696 0.017-2.538 0.049l0.121-0.004c-32.691 2.17-58.554 28.588-59.836 61.318l-0.004 0.122c0 22.080 0 44.16 0 66.56 5.042 30.742 31.415 53.912 63.2 53.912s58.158-23.17 63.15-53.542l0.050-0.371c0-10.88 0-21.44 0-32z" />
<glyph unicode="&#xe92e;" glyph-name="Arrow---Down-Square" d="M696.96 874.666c144.597 0 241.707-101.461 241.707-252.416v-348.501c0-150.955-97.109-252.416-241.707-252.416h-369.877c-144.597 0-241.749 101.461-241.749 252.416v348.501c0 150.955 97.152 252.416 241.749 252.416h369.877zM696.96 810.666h-369.877c-107.947 0-177.749-73.941-177.749-188.416v-348.501c0-114.475 69.803-188.416 177.749-188.416h369.877c107.947 0 177.707 73.941 177.707 188.416v348.501c0 114.475-69.76 188.416-177.707 188.416zM512 654.339c17.664 0 32-14.336 32-32v-271.194l105.259 105.69c12.501 12.587 32.725 12.501 45.227 0.085 12.501-12.459 12.587-32.725 0.085-45.269l-159.915-160.597c-1.046-1.024-2.127-1.97-3.268-2.841l3.268 2.841c-1.68-1.704-3.535-3.195-5.522-4.458-0.485-0.263-0.958-0.546-1.438-0.817-0.91-0.559-1.878-1.042-2.868-1.475-0.278-0.081-0.534-0.189-0.792-0.294-0.991-0.443-2.026-0.803-3.079-1.109-0.653-0.152-1.302-0.318-1.959-0.465-0.801-0.217-1.607-0.365-2.419-0.483-0.653-0.054-1.336-0.131-2.024-0.185-0.86-0.11-1.706-0.143-2.555-0.143l-2.517 0.209-1.823 0.126c-0.087 0.012-0.174 0.024-0.26 0.036l4.601-0.371c-2.368 0-4.714 0.262-6.994 0.772-0.66 0.186-1.309 0.353-1.95 0.539-1.064 0.271-2.099 0.631-3.113 1.044-0.235 0.136-0.491 0.244-0.745 0.355-1.014 0.402-1.982 0.886-2.924 1.418-0.449 0.297-0.922 0.581-1.387 0.876-0.8 0.464-1.56 0.995-2.297 1.56-1.239 0.988-2.428 2.042-3.533 3.179l-159.627 160.284c-12.501 12.544-12.416 32.811 0.085 45.269 12.544 12.416 32.768 12.501 45.227-0.085l105.259-105.69v271.194c0 17.664 14.336 32 32 32z" />
<glyph unicode="&#xe92f;" glyph-name="pdf-1" d="M707.84 512c0.29-2.193 0.455-4.73 0.455-7.305 0-32.519-26.361-58.88-58.88-58.88-1.963 0-3.904 0.096-5.817 0.284l0.243-0.019c-2.588-0.233-5.599-0.365-8.64-0.365s-6.052 0.133-9.026 0.392l0.386-0.027v124.8c5.342 1.055 11.484 1.659 17.768 1.659 1.179 0 2.353-0.021 3.521-0.063l-0.169 0.005c1.843 0.221 3.977 0.348 6.141 0.348 30.044 0 54.4-24.356 54.4-54.4 0-2.265-0.138-4.498-0.407-6.691l0.026 0.263zM501.44 571.84c-2.687 0.288-5.804 0.452-8.96 0.452s-6.273-0.164-9.344-0.485l0.384 0.032v-57.28c2.26-0.341 4.867-0.535 7.52-0.535s5.26 0.194 7.809 0.57l-0.289-0.035c23.36 0 37.44 11.52 37.44 32s-13.12 29.12-34.88 29.12zM922.56 644.16v-268.16h-552.32v268.16zM567.36 544c0.011 0.384 0.017 0.836 0.017 1.289 0 14.637-6.423 27.773-16.603 36.745l-0.054 0.046c-12.371 8.747-27.766 13.982-44.385 13.982-2.061 0-4.103-0.080-6.123-0.238l0.267 0.017c-1.221 0.020-2.661 0.031-4.104 0.031-15.389 0-30.476-1.292-45.159-3.772l1.584 0.221v-168.64h32v64c2.305-0.278 4.974-0.436 7.68-0.436s5.375 0.158 7.998 0.467l-0.318-0.030c1.266-0.075 2.747-0.118 4.238-0.118 19.122 0 36.59 7.077 49.93 18.754l-0.088-0.075c8.199 9.174 13.21 21.348 13.21 34.693 0 1.079-0.033 2.151-0.097 3.213l0.007-0.146zM741.12 512c0.131 1.679 0.206 3.636 0.206 5.61 0 23.359-10.472 44.271-26.977 58.3l-0.109 0.091c-16.927 12.592-38.243 20.159-61.326 20.159-2.856 0-5.685-0.116-8.482-0.343l0.368 0.024c-0.199 0-0.435 0.001-0.671 0.001-17.263 0-34.226-1.28-50.801-3.75l1.872 0.229v-168.32c12.059-1.43 26.027-2.246 40.185-2.246 0.723 0 1.445 0.002 2.166 0.006l-0.111-0.001c2.412-0.182 5.225-0.286 8.062-0.286 26.24 0 50.403 8.897 69.635 23.838l-0.257-0.192c16.657 16.086 27 38.616 27 63.563 0 1.617-0.043 3.224-0.129 4.82l0.010-0.222zM800 522.88v47.36h67.2v25.6h-99.2v-171.2h32v72.96h64v25.28zM762.24 155.2h-154.24v-142.72l-2.24-1.92h-466.56v883.52h623.040v-216.96h66.56v250.88c0 17.673-14.327 32-32 32v0h-690.88c-17.673 0-32-14.327-32-32v0-950.4c0-17.673 14.327-32 32-32v0h512c0.156-0.003 0.34-0.004 0.525-0.004 8.468 0 16.168 3.289 21.892 8.66l-0.017-0.016 178.24 160c6.877 5.905 11.206 14.608 11.206 24.323 0 0.224-0.002 0.447-0.007 0.67l0.001-0.033v207.040h-67.52z" />
<glyph unicode="&#xe930;" glyph-name="pdf-2" d="M693.44-41.28c-12.548 0-22.72 10.172-22.72 22.72v0 272.64c0 12.548 10.172 22.72 22.72 22.72v0h272.64c12.548 0 22.72-10.172 22.72-22.72s-10.172-22.72-22.72-22.72h-249.92v-249.92c0-12.548-10.172-22.72-22.72-22.72v0zM693.44-64h-469.44c-25.096 0-45.44 20.344-45.44 45.44v0 272.64c0 25.096 20.344 45.44 45.44 45.44s45.44-20.344 45.44-45.44v0-227.2h405.12l246.080 246.080v596.16h-696.64c-25.096 0-45.44 20.344-45.44 45.44s20.344 45.44 45.44 45.44v0h742.4c25.096 0 45.44-20.344 45.44-45.44v0-660.48c-0.075-12.518-5.199-23.824-13.437-31.997l-272.643-272.643c-8.176-8.241-19.482-13.366-31.986-13.44h-0.014zM144 527.36h-64v-114.56h-59.84v341.12h100.48c1.042 0.010 2.274 0.016 3.507 0.016 19.308 0 38.288-1.402 56.844-4.109l-2.111 0.253c16.237-1.657 31.007-6.678 44.023-14.355l-0.503 0.275c11.913-7.834 21.246-18.709 27.013-31.535l0.187-0.465c5.809-14.787 9.176-31.911 9.176-49.822 0-2.736-0.079-5.454-0.234-8.151l0.017 0.373c0.057-1.465 0.090-3.184 0.090-4.911 0-18.916-3.917-36.917-10.985-53.237l0.335 0.868c-6.633-14.449-15.936-26.62-27.373-36.358l-0.147-0.122c-10.384-8.767-22.804-15.487-36.425-19.352l-0.695-0.168c-11.757-3.512-25.283-5.605-39.275-5.759l-0.085-0.001zM130.56 704h-51.84v-124.8h56.64c2.083-0.224 4.5-0.352 6.947-0.352 16.319 0 31.311 5.682 43.106 15.175l-0.133-0.104c9.384 11.698 15.060 26.722 15.060 43.071 0 2.412-0.124 4.795-0.365 7.144l0.024-0.295c0.037 1.002 0.059 2.178 0.059 3.359 0 8.82-1.189 17.362-3.417 25.474l0.158-0.674c-2.12 7.504-6.132 13.899-11.493 18.855l-0.027 0.025c-5.896 5.101-13.142 8.802-21.128 10.504l-0.312 0.056c-8.405 1.689-18.068 2.655-27.956 2.655-1.872 0-3.737-0.035-5.592-0.103l0.268 0.008zM434.56 412.8h-128v341.12h128c0.78 0.012 1.701 0.018 2.624 0.018 23.652 0 46.288-4.349 67.152-12.291l-1.296 0.433c20.825-8.008 38.622-19.635 53.458-34.258l-0.018 0.018c14.79-14.763 26.533-32.573 34.209-52.409l0.351-1.031c7.717-20.157 12.186-43.473 12.186-67.833 0-1.128-0.010-2.253-0.029-3.377l0.002 0.169c0.020-1.045 0.032-2.278 0.032-3.513 0-24.365-4.471-47.685-12.638-69.185l0.446 1.339c-8.027-20.867-19.77-38.677-34.558-53.438l-0.002-0.002c-14.809-14.62-32.609-26.25-52.395-33.885l-1.045-0.355c-19.3-7.317-41.615-11.554-64.918-11.554-1.252 0-2.502 0.012-3.748 0.037l0.187-0.003zM434.56 700.8h-69.76v-232h69.76c1.674-0.101 3.632-0.158 5.603-0.158 28.904 0 54.921 12.362 73.052 32.087l0.065 0.071c16.889 21.103 27.103 48.186 27.103 77.656 0 2.626-0.081 5.233-0.241 7.819l0.018-0.354c0.032 1.052 0.050 2.29 0.050 3.532 0 30.089-10.648 57.691-28.382 79.243l0.172-0.216c-18.132 19.215-43.772 31.178-72.206 31.178-1.841 0-3.671-0.050-5.487-0.149l0.253 0.011zM869.12 699.52h-152v-81.28h117.44v-54.72h-117.44v-150.72h-57.6v341.12h209.6z" />
<glyph unicode="&#xe931;" glyph-name="pdf-3" d="M803.52 960h-647.040v-140.8h-104.96v-371.2h104.96v-512h824v857.92zM608 649.28v-32h-75.84v-76.8h-36.48v182.080h123.84v-32h-87.36v-41.28zM465.28 630.4c0.021-0.825 0.032-1.797 0.032-2.771 0-12.723-2.001-24.978-5.706-36.469l0.234 0.84c-4.064-12.51-10.654-23.23-19.217-32.017l0.017 0.017c-7.055-6.509-15.64-11.471-25.147-14.285l-0.453-0.115c-8.747-2.461-18.792-3.876-29.167-3.876-0.996 0-1.989 0.013-2.979 0.039l0.146-0.003h-69.44v180.8h66.56c1.651 0.076 3.587 0.12 5.533 0.12 10.758 0 21.206-1.327 31.189-3.827l-0.882 0.187c10.625-3.313 19.68-9.061 26.855-16.613l0.025-0.027c7.585-8.060 13.497-17.789 17.119-28.569l0.161-0.551c3.686-11.738 5.809-25.236 5.809-39.229 0-1.284-0.018-2.563-0.053-3.838l0.004 0.188zM182.4 610.24v-68.16h-37.12v180.48h58.56c2.158 0.077 4.694 0.121 7.24 0.121 12.702 0 25.149-1.092 37.252-3.186l-1.292 0.185c10.61-3.034 19.499-9.227 25.834-17.483l0.086-0.117c6.627-9.19 10.599-20.677 10.599-33.092 0-0.741-0.014-1.479-0.042-2.213l0.003 0.106c0.011-0.432 0.017-0.94 0.017-1.449 0-9.606-2.251-18.685-6.255-26.741l0.157 0.35c-3.673-7.275-8.873-13.294-15.213-17.82l-0.147-0.1c-5.39-3.744-11.703-6.617-18.501-8.243l-0.379-0.077c-9.907-1.664-21.32-2.615-32.956-2.615-1.689 0-3.374 0.020-5.053 0.060l0.249-0.005zM920.64-3.52h-704v451.52h501.76v371.2h-501.76v80.32h563.2l140.8-131.52v-771.52zM413.12 681.6c-4.529 4.275-10.329 7.248-16.776 8.295l-0.184 0.025c-7.32 1.285-15.749 2.019-24.35 2.019-1.903 0-3.797-0.036-5.682-0.107l0.272 0.008h-16.32v-119.68h26.88c1.098-0.042 2.387-0.066 3.682-0.066 6.504 0 12.866 0.606 19.033 1.766l-0.635-0.099c5.704 1.442 10.655 4.108 14.76 7.714l-0.040-0.034c4.487 4.801 7.824 10.733 9.538 17.32l0.062 0.28c2.259 8.718 3.556 18.726 3.556 29.038 0 1.042-0.013 2.080-0.040 3.116l0.003-0.153c0.075 1.465 0.117 3.181 0.117 4.907 0 9.64-1.328 18.969-3.811 27.816l0.173-0.723c-2.239 6.88-5.863 12.775-10.57 17.61l0.010-0.010zM240 682.56c-3.992 4.489-9.605 7.461-15.912 7.994l-0.088 0.006c-3.929 0.336-8.502 0.527-13.12 0.527s-9.191-0.191-13.712-0.567l0.592 0.040h-16v-50.56h19.52c1.617-0.102 3.505-0.16 5.408-0.16 8.317 0 16.375 1.109 24.033 3.188l-0.641-0.148c4.804 1.725 8.756 4.85 11.468 8.878l0.052 0.082c2.609 3.784 4.167 8.467 4.167 13.514 0 0.199-0.002 0.397-0.007 0.595l0.001-0.029c0.028 0.418 0.044 0.907 0.044 1.399 0 5.76-2.206 11.005-5.819 14.937l0.014-0.016z" />
<glyph unicode="&#xe932;" glyph-name="pencil" d="M786.286 883.2c-113.371 80.457-193.829 80.457-223.086 76.8l-21.943-14.629-405.943-563.2c-16.433-21.171-27.097-47.563-29.229-76.329l-0.028-0.471-14.629-332.8c-0.765-2.488-1.206-5.349-1.206-8.312 0-16.158 13.099-29.257 29.257-29.257 5.883 0 11.36 1.736 15.947 4.724l-0.113-0.069 310.857 117.029c26.308 12.125 48.339 29.471 65.56 50.855l0.269 0.345 405.943 563.2c5.383 4.044 8.828 10.416 8.828 17.592 0 2.882-0.556 5.634-1.566 8.156l0.052-0.148c-3.657 29.257-29.257 106.057-138.971 186.514zM446.171 126.171l-120.686-47.543c-1.143-0.775-2.552-1.236-4.069-1.236-3.172 0-5.873 2.019-6.886 4.843l-0.016 0.051c-19.354 22.005-40.955 41.284-64.66 57.746l-1.168 0.768c-22.015 17.74-47.405 32.544-74.856 43.22l-1.944 0.665c-3.657 0-7.314 7.314-7.314 10.971l7.314 128 32.914 47.543c63.778-0.267 122.368-22.26 168.805-58.954l-0.577 0.44c51.255-32.518 89.094-82.246 105.641-140.902l0.416-1.726-32.914-43.886z" />
<glyph unicode="&#xe933;" glyph-name="person-1" d="M516.16 358.080c165.476 0.161 299.558 134.342 299.558 299.84 0 165.597-134.243 299.84-299.84 299.84s-299.84-134.243-299.84-299.84c0-82.869 33.618-157.885 87.959-212.157l0.003-0.003c54.149-54.172 128.968-87.68 211.613-87.68 0.192 0 0.384 0 0.577 0.001h-0.030zM516.16-61.76c211.2 0 360 59.84 360 120 0 120-141.12 240-360 240-224 0-360-120-360-240 0-60.16 134.72-120 360-120z" />
<glyph unicode="&#xe934;" glyph-name="person-2" d="M515.657 458.971c113.371 0 204.8 113.371 204.8 252.343s-29.257 248.686-204.8 248.686-204.8-113.371-204.8-248.686 91.429-252.343 204.8-252.343zM903.314 85.943c-3.657 241.371-32.914 310.857-274.286 354.743-28.227-27.194-66.679-43.945-109.042-43.945-1.522 0-3.040 0.022-4.551 0.065l0.222-0.005c-0.439-0.004-0.958-0.007-1.477-0.007-43.261 0-82.622 16.692-111.997 43.987l0.102-0.094c-237.714-43.886-270.629-109.714-274.286-347.429v-40.229s54.857-117.029 387.657-117.029 387.657 117.029 387.657 117.029v32.914z" />
<glyph unicode="&#xe935;" glyph-name="phone" d="M186.005 744.077c0.085 0-2.048-2.219-4.736-4.864-10.325-10.027-31.701-30.891-31.917-74.539-0.339-61.056 39.81-174.421 233.133-367.701 192.427-192.341 305.621-232.96 366.805-232.96h0.896c43.648 0.213 64.469 21.632 74.539 31.915 3.072 3.157 5.547 5.461 7.296 6.912 42.496 42.752 64.256 74.581 64.044 94.976-0.3 20.821-26.199 45.44-61.996 79.488-11.392 10.837-23.765 22.613-36.821 35.669-33.835 33.749-50.603 27.989-87.467 15.019-50.987-17.877-120.96-42.197-229.675 66.56-108.885 108.8-84.523 178.688-66.688 229.675 12.885 36.864 18.773 53.675-15.104 87.552-13.269 13.227-25.173 25.771-36.139 37.291-33.835 35.584-58.24 61.312-78.933 61.611h-0.341c-20.437 0-52.181-21.845-97.109-66.773 0.128 0.128 0.171 0.171 0.213 0.171v0zM749.333 0.013c-106.325 0-244.949 84.651-412.075 251.691-167.765 167.723-252.544 306.773-251.908 413.312 0.388 70.4 37.294 106.453 51.161 119.979 0.725 0.896 3.2 3.328 4.053 4.181 61.184 61.227 102.443 85.973 143.488 85.511 47.659-0.647 81.579-36.316 124.501-81.5 10.624-11.179 22.144-23.339 34.987-36.139 62.293-62.293 44.544-113.109 30.293-153.899-15.531-44.501-28.971-82.901 51.499-163.371 80.555-80.469 118.955-67.029 163.285-51.371 40.832 14.251 91.52 32.085 153.899-30.208 12.629-12.629 24.619-24.021 35.669-34.56 45.397-43.136 81.237-77.227 81.842-125.013 0.504-40.747-24.242-82.261-85.341-143.403l-27.051 18.347 22.869-22.357c-13.525-13.867-49.536-50.816-119.979-51.2h-1.195z" />
<glyph unicode="&#xe936;" glyph-name="Arrow---Left-Circle" d="M512 874.667c235.264 0 426.667-191.403 426.667-426.667s-191.403-426.667-426.667-426.667c-235.264 0-426.667 191.403-426.667 426.667s191.403 426.667 426.667 426.667zM512 810.667c-199.979 0-362.667-162.688-362.667-362.667s162.688-362.667 362.667-362.667c199.979 0 362.667 162.688 362.667 362.667s-162.688 362.667-362.667 362.667zM596.198 618.679c12.501-12.544 12.416-32.811-0.085-45.269l-125.952-125.397 125.952-125.44c12.501-12.459 12.587-32.683 0.085-45.227-6.229-6.315-14.464-9.429-22.656-9.429-8.149 0-16.341 3.115-22.571 9.344l-148.779 148.053c-6.016 6.016-9.387 14.165-9.387 22.699 0 8.491 3.371 16.64 9.387 22.656l148.779 148.096c12.501 12.459 32.725 12.459 45.227-0.085z" />
<glyph unicode="&#xe937;" glyph-name="pin" d="M522.645 874.667c194.091 0 352-159.104 352-354.688 0-240.427-275.456-477.312-352-477.312s-352 236.885-352 477.312c0 195.584 157.909 354.688 352 354.688zM522.645 810.667c-158.805 0-288-130.432-288-290.688 0-203.904 239.957-402.56 288-413.141 48.043 10.624 288 209.28 288 413.141 0 160.256-129.195 290.688-288 290.688zM522.688 661.333c76.459 0 138.667-62.208 138.667-138.709 0-76.459-62.208-138.624-138.667-138.624s-138.667 62.165-138.667 138.624c0 76.501 62.208 138.709 138.667 138.709zM522.688 597.333c-41.173 0-74.667-33.493-74.667-74.709 0-41.173 33.493-74.624 74.667-74.624s74.667 33.451 74.667 74.624c0 41.216-33.493 74.709-74.667 74.709z" />
<glyph unicode="&#xe938;" glyph-name="play" d="M522.667 874.667c241.152 0 437.333-196.181 437.333-437.333s-196.181-437.333-437.333-437.333c-241.152 0-437.333 196.181-437.333 437.333s196.181 437.333 437.333 437.333zM522.667 810.667c-205.867 0-373.333-167.467-373.333-373.333s167.467-373.333 373.333-373.333c205.867 0 373.333 167.467 373.333 373.333s-167.467 373.333-373.333 373.333zM504.781 586.18c22.187-9.259 177.877-89.003 177.877-148.651 0-55.893-140.117-134.059-175.915-148.992-13.952-5.803-29.867-11.264-44.757-11.264-11.52 0-22.443 3.285-31.36 12.16-6.869 6.784-25.216 24.917-25.301 144.341-0.043 126.805 19.029 145.664 25.301 151.936 22.315 22.101 58.667 6.955 74.155 0.469zM475.042 529.647c-7.552-42.709-7.68-144.725-0.128-185.259 37.461 13.227 118.613 66.56 140.459 92.971-21.76 25.643-101.888 77.867-140.331 92.288z" />
<glyph unicode="&#xe939;" glyph-name="plus-1" d="M1024 375.36h-435.52v-435.52h-144.96v435.52h-435.84v145.28h435.84v435.52h144.96v-435.52h435.52z" />
<glyph unicode="&#xe93a;" glyph-name="print-1" d="M36.16 91.2h201.92v-119.040c-0.001-0.095-0.001-0.207-0.001-0.32 0-19.794 16.046-35.84 35.84-35.84 0.001 0 0.001 0 0.002 0h476.16c0.096-0.001 0.208-0.001 0.321-0.001 19.794 0 35.84 16.046 35.84 35.84 0 0.113-0.001 0.226-0.002 0.339v-0.017 119.040h201.92c0.004 0 0.008 0 0.013 0 19.794 0 35.84 16.046 35.84 35.84 0 0.338-0.005 0.674-0.014 1.009l0.001-0.049v640c0.001 0.096 0.001 0.208 0.001 0.321 0 19.794-16.046 35.84-35.84 35.84-0.113 0-0.226-0.001-0.339-0.002h-201.903v119.68c0.001 0.095 0.001 0.207 0.001 0.32 0 19.794-16.046 35.84-35.84 35.84-0.001 0-0.001 0-0.002 0h-476.16c0 0-0.001 0-0.001 0-19.794 0-35.84-16.046-35.84-35.84 0-0.113 0.001-0.225 0.002-0.337v0.017-119.040h-201.92c-0.099 0.001-0.216 0.002-0.333 0.002-19.794 0-35.84-16.046-35.84-35.84 0-0.338 0.005-0.675 0.014-1.011l-0.001 0.049v-640c0-0.002 0-0.004 0-0.006 0-20.099 16.113-36.435 36.126-36.794h0.034zM713.92 8.32h-403.84v297.92h403.84zM310.080 887.68h403.84v-82.88h-403.84zM72.32 732.8h879.36v-569.6h-165.76v143.040h64c19.971 0 36.16 16.189 36.16 36.16s-16.189 36.16-36.16 36.16h-675.52c-19.971 0-36.16-16.189-36.16-36.16s16.189-36.16 36.16-36.16h64v-143.040h-166.080zM704 546.56h92.8c19.971 0 36.16 16.189 36.16 36.16s-16.189 36.16-36.16 36.16v0h-92.8c-19.971 0-36.16-16.189-36.16-36.16s16.189-36.16 36.16-36.16v0z" />
<glyph unicode="&#xe93b;" glyph-name="print-2" d="M716.8 227.2h-409.6c-9.72 0-17.6-7.88-17.6-17.6s7.88-17.6 17.6-17.6h409.6c9.455 0 17.12 7.665 17.12 17.12s-7.665 17.12-17.12 17.12v0zM716.8 141.76h-409.6c-9.455 0-17.12-7.665-17.12-17.12s7.665-17.12 17.12-17.12h409.6c9.455 0 17.12 7.665 17.12 17.12s-7.665 17.12-17.12 17.12v0zM870.4 669.76v290.24h-716.8v-290.24h-153.6v-580.16h153.6v-153.6h716.8v153.6h153.6v580.16zM187.84 925.76h648.32v-256h-648.32zM153.6 635.84h836.16v-272.96h-955.52v272.96zM102.4 123.84h-68.16v204.8h119.36v-204.8h-16.96zM836.48-29.76h-648.64v358.4h648.32v-358.4zM887.68 123.84v0h-17.28v204.8h119.36v-204.8h-68.16z" />
<glyph unicode="&#xe93c;" glyph-name="pushpin" d="M460.8 506.514v277.943l-7.314 10.971c-3.371 4.461-8.667 7.314-14.629 7.314v0l-10.971-7.314-7.314-10.971v-277.943l7.314-14.629h25.6c3.657 3.941 6.249 8.92 7.286 14.447l0.028 0.181zM874.057 290.743c0.13-1.158 0.204-2.501 0.204-3.862 0-20.198-16.374-36.571-36.571-36.571-1.36 0-2.703 0.074-4.025 0.219l0.163-0.015h-263.314l-32.914-296.229c0.078-0.695 0.123-1.5 0.123-2.316 0-4.596-1.413-8.862-3.828-12.387l0.049 0.075h-14.629c-10.099 0-18.286 8.187-18.286 18.286v0l-47.543 296.229h-248.686c-0.481-0.021-1.045-0.032-1.612-0.032-10.716 0-20.453 4.19-27.663 11.021l0.018-0.017c-6.814 7.192-11.004 16.929-11.004 27.645 0 0.567 0.012 1.131 0.035 1.692l-0.003-0.080c-0.026 1.21-0.040 2.637-0.040 4.067 0 50.089 17.982 95.978 47.842 131.564l-0.259-0.317c24.503 35.669 64.072 59.459 109.322 62.153l0.393 0.019v310.857c-0.769-0.029-1.672-0.045-2.578-0.045-20.477 0-38.989 8.415-52.266 21.976l-0.012 0.013c-12.954 14.604-21.131 33.704-21.938 54.693l-0.005 0.164c0.231 22.419 8.495 42.863 22.045 58.636l-0.102-0.121c13.29 13.573 31.802 21.988 52.279 21.988 0.907 0 1.809-0.016 2.708-0.049l-0.13 0.004h394.971c0.769 0.029 1.672 0.045 2.578 0.045 20.477 0 38.989-8.415 52.266-21.976l0.012-0.013c13.448-15.651 21.712-36.096 21.942-58.465v-0.049c-0.812-21.153-8.989-40.253-22.022-54.948l0.079 0.091c-13.29-13.573-31.802-21.988-52.279-21.988-0.907 0-1.809 0.016-2.708 0.049l0.13-0.004v-314.514c45.642-2.712 85.211-26.502 109.401-61.689l0.314-0.483c29.602-35.27 47.583-81.159 47.583-131.248 0-1.43-0.015-2.856-0.044-4.279l0.003 0.213z" />
<glyph unicode="&#xe93d;" glyph-name="quote-set1-end" d="M0 832v-384h256c0-141.385-114.615-256-256-256v0-128c212.077 0 384 171.923 384 384v0 384zM640 832v-384h256c0-141.385-114.615-256-256-256v0-128c212.077 0 384 171.923 384 384v0 384z" />
<glyph unicode="&#xe93e;" glyph-name="quote-set1-start" d="M191.741 234.205c2.308 73.863 14.138 149.453 35.487 226.779s48.761 144.261 82.228 200.81h178.307c-48.472-135.028-72.707-277.557-72.707-427.589h-223.316zM536.237 234.205c2.308 73.863 14.138 149.453 35.487 226.779s48.761 144.261 82.228 200.81h178.307c-48.472-135.028-72.707-277.557-72.707-427.589h-223.316z" />
<glyph unicode="&#xe93f;" glyph-name="Arrow---Left-Square" d="M337.75 874.666c-150.955 0-252.416-97.109-252.416-241.707v-369.877c0-144.597 101.461-241.749 252.416-241.749h348.501c150.955 0 252.416 97.152 252.416 241.749v369.877c0 144.597-101.461 241.707-252.416 241.707h-348.501zM337.75 810.666h348.501c114.475 0 188.416-69.76 188.416-177.707v-369.877c0-107.947-73.941-177.749-188.416-177.749h-348.501c-114.475 0-188.416 69.803-188.416 177.749v369.877c0 107.947 73.941 177.707 188.416 177.707zM475.679 630.57l-160.31-159.627c-1.198-1.164-2.305-2.422-3.309-3.76l3.022 3.473c-1.512-1.49-2.856-3.119-4.022-4.856-0.509-0.787-1.004-1.6-1.463-2.437-0.377-0.653-0.719-1.335-1.037-2.029-0.29-0.667-0.57-1.337-0.828-2.017-0.265-0.663-0.495-1.34-0.702-2.025-0.72-2.415-1.175-4.952-1.314-7.572-0.047-0.58-0.063-1.15-0.063-1.721l0.141-1.664 0.169-2.676c0.23-1.697 0.594-3.352 1.080-4.954 0.194-0.683 0.425-1.361 0.677-2.029 0.27-0.675 0.55-1.344 0.851-2.002 0.306-0.703 0.649-1.385 1.016-2.054 0.468-0.82 0.964-1.634 1.493-2.423 0.294-0.466 0.622-0.927 0.962-1.379 0.932-1.219 1.93-2.369 3.004-3.443l0.036-0.032 160.597-159.915c6.229-6.229 14.421-9.344 22.571-9.344 8.192 0 16.427 3.115 22.656 9.429 12.459 12.544 12.416 32.768-0.085 45.227l-105.673 105.259h271.194c17.664 0 32 14.336 32 32s-14.336 32-32 32h-271.194l105.673 105.259c12.501 12.459 12.544 32.683 0.085 45.227s-32.683 12.544-45.227 0.085z" />
<glyph unicode="&#xe940;" glyph-name="Arrow---Right-Circle" d="M512 874.667c235.264 0 426.667-191.403 426.667-426.667s-191.403-426.667-426.667-426.667c-235.264 0-426.667 191.403-426.667 426.667s191.403 426.667 426.667 426.667zM512 810.667c-199.979 0-362.667-162.688-362.667-362.667s162.688-362.667 362.667-362.667c199.979 0 362.667 162.688 362.667 362.667s-162.688 362.667-362.667 362.667zM473.071 618.765l148.736-148.096c6.016-6.016 9.387-14.165 9.387-22.656 0-8.533-3.371-16.683-9.387-22.699l-148.736-148.053c-6.229-6.229-14.421-9.344-22.571-9.344-8.192 0-16.427 3.115-22.656 9.429-12.459 12.544-12.416 32.768 0.085 45.227l125.952 125.44-125.952 125.397c-12.501 12.459-12.544 32.725-0.085 45.269 12.459 12.587 32.683 12.501 45.227 0.085z" />
<glyph unicode="&#xe941;" glyph-name="search" d="M500.855 874.667c229.12 0 415.488-186.368 415.488-415.488 0-108.098-41.484-206.689-109.37-280.682l133.579-133.299c12.501-12.501 12.544-32.725 0.043-45.227-6.229-6.315-14.464-9.429-22.656-9.429-8.149 0-16.341 3.115-22.613 9.344l-135.191 134.814c-71.116-56.953-161.288-91.050-259.279-91.050-229.12 0-415.531 186.411-415.531 415.531s186.411 415.488 415.531 415.488zM500.855 810.667c-193.835 0-351.531-157.653-351.531-351.488s157.696-351.531 351.531-351.531c193.792 0 351.488 157.696 351.488 351.531s-157.696 351.488-351.488 351.488z" />
<glyph unicode="&#xe942;" glyph-name="share" d="M834.88 310.080c-58.631-0.199-110.778-27.79-144.337-70.638l-0.303-0.402-314.56 160c4.247 14.328 6.802 30.818 7.039 47.869l0.001 0.131c-0.287 18.601-3.308 36.393-8.678 53.133l0.358-1.293 313.28 160c34.083-44.166 87.032-72.336 146.56-72.336 101.974 0 184.64 82.666 184.64 184.64s-82.666 184.64-184.64 184.64c-101.968 0-184.631-82.657-184.64-184.623v-0.001c0.229-17.179 2.785-33.67 7.366-49.296l-0.326 1.296-314.56-160c-34.223 43.619-86.938 71.383-146.137 71.383-102.327 0-185.28-82.953-185.28-185.28s82.953-185.28 185.28-185.28c60.874 0 114.892 29.357 148.667 74.686l0.35 0.491 313.28-160c-5.038-15.548-8.062-33.455-8.319-52.030l-0.001-0.13c0-102.327 82.953-185.28 185.28-185.28s185.28 82.953 185.28 185.28c0 102.327-82.953 185.28-185.28 185.28v0z" />
<glyph unicode="&#xe943;" glyph-name="Arrow---Right-Square" d="M686.251 874.666c150.955 0 252.416-97.109 252.416-241.707v-369.877c0-144.597-101.461-241.749-252.416-241.749h-348.501c-150.955 0-252.416 97.152-252.416 241.749v369.877c0 144.597 101.461 241.707 252.416 241.707h348.501zM686.251 810.666h-348.501c-114.475 0-188.416-69.76-188.416-177.707v-369.877c0-107.947 73.941-177.749 188.416-177.749h348.501c114.475 0 188.416 69.803 188.416 177.749v369.877c0 107.947-73.941 177.707-188.416 177.707zM548.322 630.57l160.31-159.627c1.198-1.164 2.305-2.422 3.309-3.76l-3.022 3.473c1.512-1.49 2.856-3.119 4.022-4.856 0.509-0.787 1.004-1.6 1.463-2.437 0.377-0.653 0.719-1.335 1.037-2.029 0.29-0.667 0.57-1.337 0.828-2.017 0.265-0.663 0.495-1.34 0.702-2.025 0.72-2.415 1.175-4.952 1.314-7.572 0.047-0.58 0.063-1.15 0.063-1.721l-0.141-1.664-0.169-2.676c-0.23-1.697-0.594-3.352-1.080-4.954-0.194-0.683-0.425-1.361-0.677-2.029-0.27-0.675-0.55-1.344-0.851-2.002-0.306-0.703-0.649-1.385-1.016-2.054-0.468-0.82-0.964-1.634-1.493-2.423-0.294-0.466-0.622-0.927-0.962-1.379-0.932-1.219-1.93-2.369-3.004-3.443l-0.036-0.032-160.597-159.915c-6.229-6.229-14.421-9.344-22.571-9.344-8.192 0-16.427 3.115-22.656 9.429-12.459 12.544-12.416 32.768 0.085 45.227l105.673 105.259h-271.194c-17.664 0-32 14.336-32 32s14.336 32 32 32h271.194l-105.673 105.259c-12.501 12.459-12.544 32.683-0.085 45.227s32.683 12.544 45.227 0.085z" />
<glyph unicode="&#xe944;" glyph-name="speaker_notes" d="M819.2 652.8v102.4h-409.6v-102.4zM819.2 499.2v102.4h-409.6v-102.4zM665.6 345.6v102.4h-256v-102.4zM307.2 652.8v102.4h-102.4v-102.4zM307.2 499.2v102.4h-102.4v-102.4zM307.2 345.6v102.4h-102.4v-102.4zM921.6 960c1.112 0.045 2.417 0.070 3.728 0.070 54.534 0 98.743-44.209 98.743-98.743 0-1.311-0.026-2.616-0.076-3.914l0.006 0.187v-614.4c0-56.554-45.846-102.4-102.4-102.4h-716.8l-204.8-204.8v921.6c-0.045 1.112-0.070 2.417-0.070 3.728 0 54.534 44.209 98.743 98.743 98.743 1.311 0 2.616-0.026 3.914-0.076l-0.187 0.006z" />
<glyph unicode="&#xe945;" glyph-name="star" d="M501.33 768c-3.883 0-13.44-1.067-18.517-11.221l-77.909-155.776c-12.331-24.619-36.096-41.728-63.573-45.653l-174.421-25.131c-11.52-1.664-15.445-10.197-16.64-13.781-1.067-3.456-2.773-12.245 5.163-19.84l126.123-121.173c20.096-19.328 29.227-47.189 24.448-74.453l-29.696-171.093c-1.835-10.709 4.864-16.939 7.851-19.072 3.157-2.389 11.605-7.125 22.059-1.664l155.947 80.853c24.576 12.672 53.845 12.672 78.336 0l155.904-80.811c10.496-5.419 18.944-0.683 22.144 1.621 2.987 2.133 9.685 8.363 7.851 19.072l-29.781 171.093c-4.779 27.264 4.352 55.125 24.448 74.453l126.123 121.173c7.979 7.595 6.272 16.427 5.163 19.84-1.152 3.584-5.077 12.117-16.597 13.781l-174.421 25.131c-27.435 3.925-51.2 21.035-63.531 45.696l-77.995 155.733c-5.035 10.155-14.592 11.221-18.475 11.221zM296.402 42.667c-17.621 0-35.115 5.547-50.091 16.469-25.856 18.944-38.528 50.219-33.024 81.707l29.696 171.093c1.109 6.357-1.067 12.8-5.76 17.323l-126.123 121.173c-23.211 22.229-31.531 55.083-21.717 85.589 9.899 30.848 36.096 52.907 68.395 57.515l174.421 25.131c6.741 0.939 12.544 5.077 15.445 10.965l77.952 155.819c14.379 28.715 43.392 46.549 75.733 46.549v0c32.341 0 61.355-17.835 75.733-46.549l77.995-155.776c2.944-5.931 8.704-10.069 15.403-11.008l174.421-25.131c32.299-4.608 58.496-26.667 68.395-57.515 9.813-30.507 1.451-63.36-21.76-85.589l-126.123-121.173c-4.693-4.523-6.827-10.965-5.717-17.28l29.739-171.136c5.461-31.531-7.211-62.805-33.109-81.707-26.24-19.243-60.416-21.845-89.387-6.741l-155.861 80.768c-6.101 3.157-13.397 3.157-19.499 0l-155.861-80.811c-12.459-6.485-25.899-9.685-39.296-9.685z" />
<glyph unicode="&#xe946;" glyph-name="stats" d="M635.601 838.737c17.664 0 32-14.336 32-32s-14.336-32-32-32h-310.101c-107.008 0-176.171-73.557-176.171-187.477v-344.832c0-115.413 67.499-187.093 176.171-187.093h367.104c107.008 0 176.171 73.429 176.171 187.093v300.331c0 17.664 14.336 32 32 32s32-14.336 32-32v-300.331c0-150.187-96.512-251.093-240.171-251.093h-367.104c-143.659 0-240.171 100.907-240.171 251.093v344.832c0 150.4 96.512 251.477 240.171 251.477h310.101zM725.858 547.332c13.995-10.837 16.555-30.933 5.717-44.885l-125.013-161.28c-5.205-6.741-12.885-11.136-21.333-12.16-8.533-1.152-16.981 1.323-23.723 6.571l-120.235 94.464-107.989-140.331c-6.315-8.192-15.787-12.501-25.387-12.501-6.827 0-13.696 2.176-19.499 6.613-13.995 10.795-16.64 30.891-5.845 44.885l127.701 165.973c5.205 6.784 12.928 11.179 21.376 12.245 8.619 1.109 17.067-1.28 23.765-6.613l120.32-94.507 105.259 135.808c10.837 14.037 30.891 16.64 44.885 5.717zM851.938 874.667c62.891 0 114.005-51.115 114.005-114.005s-51.115-114.048-114.005-114.048c-62.848 0-114.005 51.157-114.005 114.048s51.157 114.005 114.005 114.005zM851.938 810.667c-27.563 0-50.005-22.4-50.005-50.005 0-27.563 22.443-50.048 50.005-50.048s50.005 22.485 50.005 50.048c0 27.605-22.443 50.005-50.005 50.005z" />
<glyph unicode="&#xe947;" glyph-name="tag" d="M928.914 960h-288.914c-64.136-2.125-121.793-28.219-164.646-69.557l0.075 0.072-446.171-446.171c-18.42-16.787-29.933-40.877-29.933-67.657s11.513-50.87 29.86-67.592l0.073-0.065 343.771-343.771c16.787-18.42 40.877-29.933 67.657-29.933s50.87 11.513 67.592 29.86l0.065 0.073 446.171 446.171c41.267 42.778 67.361 100.436 69.475 164.166l0.011 0.406v288.914c0 52.514-42.571 95.086-95.086 95.086v0zM800.914 638.171c-0.021 0-0.046 0-0.070 0-52.514 0-95.086 42.571-95.086 95.086 0 1.286 0.026 2.566 0.076 3.84l-0.006-0.183c0 52.514 42.571 95.086 95.086 95.086v0c45.803-9.176 79.828-49.072 79.828-96.914s-34.025-87.738-79.197-96.809l-0.631-0.106z" />
<glyph unicode="&#xe948;" glyph-name="tick" d="M137.373 454.325c11.455 11.455 29.435 12.41 41.978 2.864l3.277-2.864 188.539-188.553 428.888 428.856c11.455 11.455 29.435 12.41 41.978 2.864l3.277-2.864c11.455-11.455 12.41-29.435 2.864-41.978l-2.864-3.277-451.492-451.492c-11.455-11.455-29.435-12.41-41.978-2.864l-3.277 2.864-211.189 211.189c-12.497 12.497-12.497 32.758 0 45.255z" />
<glyph unicode="&#xe949;" glyph-name="Arrow---Up-Circle" d="M512 874.667c235.264 0 426.667-191.403 426.667-426.667s-191.403-426.667-426.667-426.667c-235.264 0-426.667 191.403-426.667 426.667s191.403 426.667 426.667 426.667zM512 810.667c-199.979 0-362.667-162.688-362.667-362.667s162.688-362.667 362.667-362.667c199.979 0 362.667 162.688 362.667 362.667s-162.688 362.667-362.667 362.667zM534.686 557.807l148.096-148.779c12.459-12.544 12.416-32.768-0.085-45.227-6.229-6.229-14.421-9.344-22.571-9.344-8.192 0-16.427 3.115-22.656 9.429l-125.483 125.995-125.397-125.995c-12.459-12.544-32.725-12.544-45.269-0.085-12.501 12.459-12.587 32.683-0.085 45.227l148.096 148.779c11.989 12.075 33.323 12.075 45.355 0z" />
<glyph unicode="&#xe94a;" glyph-name="timer" d="M720.457 448c141.989 95.82 234.122 256.113 234.122 437.924 0 2.9-0.023 5.794-0.070 8.683l0.006-0.435c0 21.943-3.657 43.886-3.657 65.829h-892.343c0-21.943-3.657-43.886-3.657-65.829-0.041-2.453-0.065-5.348-0.065-8.247 0-181.811 92.133-342.104 232.257-436.737l1.865-1.187c-142.062-96.607-234.15-257.496-234.15-439.894 0-3.493 0.034-6.978 0.101-10.455l-0.008 0.52c0-18.286 3.657-40.229 3.657-62.171h892.343v62.171c0.201 5.394 0.315 11.729 0.315 18.090 0 179.22-90.786 337.237-228.879 430.568l-1.836 1.17zM153.6-1.829c0 190.171 80.457 347.429 223.086 398.629v102.4c-142.629 51.2-223.086 208.457-223.086 394.971h702.171c0-186.514-80.457-343.771-223.086-394.971v-102.4c142.629-51.2 223.086-208.457 223.086-398.629zM610.743 290.743c-43.753 20.974-73.429 64.913-73.429 115.784 0 3.011 0.104 5.998 0.309 8.958l-0.022-0.399v65.829c-0.097 1.889-0.152 4.102-0.152 6.328 0 51.453 29.516 96.012 72.539 117.67l0.756 0.345c40.824 24.649 74.094 57.918 98.027 97.469l0.716 1.274h-409.6c24.649-40.824 57.918-74.094 97.469-98.027l1.274-0.716c43.753-20.974 73.429-64.913 73.429-115.784 0-3.011-0.104-5.998-0.309-8.958l0.022 0.399v-65.829c0.097-1.889 0.152-4.102 0.152-6.328 0-51.453-29.516-96.012-72.539-117.67l-0.756-0.345c-77.621-50.351-131.888-131.076-146.063-224.946l-0.223-1.797h504.686c-14.398 95.667-68.664 176.392-145.021 225.973l-1.264 0.77z" />
<glyph unicode="&#xe94b;" glyph-name="Arrow---Up-Square" d="M696.96 21.333c144.597 0 241.707 101.461 241.707 252.416v348.501c0 150.955-97.109 252.416-241.707 252.416h-369.877c-144.597 0-241.749-101.461-241.749-252.416v-348.501c0-150.955 97.152-252.416 241.749-252.416h369.877zM696.96 85.333h-369.877c-107.947 0-177.749 73.941-177.749 188.416v348.501c0 114.475 69.803 188.416 177.749 188.416h369.877c107.947 0 177.707-73.941 177.707-188.416v-348.501c0-114.475-69.76-188.416-177.707-188.416zM512 241.66c17.664 0 32 14.336 32 32v271.194l105.259-105.69c12.501-12.587 32.725-12.501 45.227-0.085 12.501 12.459 12.587 32.725 0.085 45.269l-159.915 160.597c-1.046 1.024-2.127 1.97-3.268 2.841l3.268-2.841c-1.68 1.704-3.535 3.195-5.522 4.458-0.485 0.263-0.958 0.546-1.438 0.817-0.91 0.559-1.878 1.042-2.868 1.475-0.278 0.081-0.534 0.189-0.792 0.294-0.991 0.443-2.026 0.803-3.079 1.109-0.653 0.152-1.302 0.318-1.959 0.465-0.801 0.217-1.607 0.365-2.419 0.483-0.653 0.054-1.336 0.131-2.024 0.185-0.86 0.11-1.706 0.143-2.555 0.143l-2.517-0.209-1.823-0.126c-0.087-0.012-0.174-0.024-0.26-0.036l4.601 0.371c-2.368 0-4.714-0.262-6.994-0.772-0.66-0.186-1.309-0.353-1.95-0.539-1.064-0.271-2.099-0.631-3.113-1.044-0.235-0.136-0.491-0.244-0.745-0.355-1.014-0.402-1.982-0.886-2.924-1.418-0.449-0.297-0.922-0.581-1.387-0.876-0.8-0.464-1.56-0.995-2.297-1.56-1.239-0.988-2.428-2.042-3.533-3.179l-159.627-160.284c-12.501-12.544-12.416-32.811 0.085-45.269 12.544-12.416 32.768-12.501 45.227 0.085l105.259 105.69v-271.194c0-17.664 14.336-32 32-32z" />
<glyph unicode="&#xe94c;" glyph-name="Bag-2" d="M512.175 874.665c105.57 0 191.649-85.455 192.799-190.886l9.351-0.043c117.845 0 213.675-95.787 213.675-213.547v-235.349c0-117.717-95.829-213.504-213.675-213.504h-404.651c-117.803 0-213.675 95.787-213.675 213.504v235.349c0 117.76 95.872 213.547 213.675 213.547l8.704 0.038 0.271 8.298c2.679 48.404 22.614 92.808 56.822 126.657 36.608 36.309 85.76 54.443 136.704 55.936zM714.325 619.736l-9.344 0.038 0.004-67.499c0-17.664-14.336-32-32-32s-32 14.336-32 32l-0.004 67.499h-258.645l0.004-67.499c0-17.664-14.336-32-32-32s-32 14.336-32 32l-0.004 67.499-8.661-0.038c-82.517 0-149.675-67.072-149.675-149.547v-235.349c0-82.432 67.157-149.504 149.675-149.504h404.651c82.517 0 149.675 67.072 149.675 149.504v235.349c0 82.475-67.157 149.547-149.675 149.547zM512.047 810.665c-34.603-1.195-67.029-13.141-91.52-37.376-24.135-23.925-37.663-55.64-38.173-89.51l258.542-0.004-0.13 5.435c-3.927 67.619-60.134 121.456-128.719 121.456z" />
<glyph unicode="&#xe94d;" glyph-name="user" d="M846.502 183.761c0-140.629-192.853-156.885-337.877-156.885l-10.378 0.009c-92.397 0.224-327.585 6.058-327.585 157.73 0 137.759 185.103 156.17 329.023 156.864l19.317 0.012c92.391-0.224 327.5-6.058 327.5-157.73zM508.625 277.5c-181.803 0-273.963-31.232-273.963-92.885 0-62.208 92.16-93.739 273.963-93.739 181.76 0 273.877 31.232 273.877 92.885 0 62.208-92.117 93.739-273.877 93.739zM508.625 874.679c124.928 0 226.517-101.632 226.517-226.56s-101.589-226.517-226.517-226.517h-1.365c-124.672 0.384-225.664 102.059-225.239 226.645 0 124.8 101.633 226.432 226.604 226.432zM508.625 813.751c-91.349 0-165.676-74.283-165.676-165.632-0.298-91.051 73.473-165.291 164.438-165.632l1.237-30.464v30.464c91.307 0 165.589 74.325 165.589 165.632 0 91.349-74.283 165.632-165.589 165.632z" />
<glyph unicode="&#xe94e;" glyph-name="user-add" d="M421.419 343.211l5.082-0.001 11.263-0.031c95.656-0.511 319.741-9.207 319.741-157.024 0-137.049-184.039-155.363-327.193-156.054l-25.236 0.011c-95.656 0.511-319.741 9.204-319.741 156.981 0 139.947 191.787 156.117 336.085 156.117zM421.419 279.211c-180.523 0-272.085-31.019-272.085-92.117 0-61.696 91.563-93.013 272.085-93.013s272.085 31.019 272.085 92.075c0 61.781-91.563 93.056-272.085 93.056zM819.375 622.135c17.664 0 32-14.336 32-32l-0.004-53.517 55.296-0.034c17.664 0 32-14.336 32-32s-14.336-32-32-32l-55.296 0.034 0.004-53.619c0-17.664-14.336-32-32-32s-32 14.336-32 32l-0.004 53.619-55.211-0.034c-17.664 0-32 14.336-32 32s14.336 32 32 32l55.211 0.034 0.004 53.517c0 17.664 14.336 32 32 32zM421.419 874.667c125.141 0 226.901-101.803 226.901-226.901s-101.76-226.901-226.901-226.901h-1.323c-60.544 0.213-117.291 23.979-159.829 66.816-42.581 42.88-65.92 99.797-65.708 160.213 0 124.971 101.761 226.773 226.86 226.773zM421.419 810.667c-89.771 0-162.86-73.088-162.86-162.901-0.169-43.477 16.556-84.224 47.063-114.987 30.549-30.72 71.253-47.744 114.603-47.915l1.195-31.616v31.616c89.813 0 162.901 73.088 162.901 162.901s-73.088 162.901-162.901 162.901z" />
<glyph unicode="&#xe94f;" glyph-name="warning" d="M512.585 832c43.52 0 82.475-22.571 104.064-60.373l306.603-536.064c21.461-37.504 21.333-82.261-0.384-119.68-21.717-37.461-60.501-59.819-103.723-59.819h-613.675c-43.264 0-82.048 22.357-103.765 59.819-21.717 37.419-21.845 82.176-0.384 119.68l307.2 536.149c21.589 37.76 60.459 60.288 104.021 60.288h0.043zM512.542 768c-20.309 0-38.4-10.496-48.555-28.117l-307.115-536.107c-9.984-17.493-9.899-38.357 0.213-55.808s28.203-27.904 48.384-27.904h613.675c20.139 0 38.229 10.453 48.341 27.904 10.155 17.451 10.24 38.315 0.171 55.808l-306.56 536.107c-10.112 17.621-28.203 28.117-48.555 28.117zM512.252 298.709c23.595 0 42.667-19.072 42.667-42.667s-19.072-42.667-42.667-42.667c-23.595 0-42.88 19.072-42.88 42.667s18.901 42.667 42.453 42.667h0.427zM512.166 551.936c17.664 0 32-14.336 32-32v-132.267c0-17.664-14.336-32-32-32s-32 14.336-32 32v132.267c0 17.664 14.336 32 32 32z" />
<glyph unicode="&#xe950;" glyph-name="wrench" d="M1002.057 140.8l-460.8 394.971c20.738 38.559 32.923 84.376 32.923 133.039 0 0.8-0.003 1.599-0.010 2.398l0.001-0.122c0.015 1.087 0.023 2.371 0.023 3.657 0 157.543-127.714 285.257-285.257 285.257-0.008 0-0.016 0-0.025 0h0.001c-0.662 0.005-1.444 0.008-2.227 0.008-29.135 0-57.334-4.008-84.075-11.503l2.188 0.524 164.571-168.229c11.423-11.824 18.462-27.947 18.462-45.714s-7.039-33.89-18.48-45.733l0.018 0.019-98.743-98.743c-11.824-11.423-27.947-18.462-45.714-18.462s-33.89 7.039-45.733 18.48l0.019-0.018-168.229 164.571c-6.971-24.553-10.979-52.752-10.979-81.887 0-0.783 0.003-1.565 0.009-2.347l-0.001 0.12c0-159.563 129.351-288.914 288.914-288.914v0c49.835 0.973 96.326 14.415 136.75 37.32l-1.435-0.748 394.971-460.8c10.125-13.153 25.875-21.546 43.585-21.546 16.034 0 30.461 6.879 40.492 17.847l0.038 0.042 102.4 102.4c11.010 10.068 17.888 24.495 17.888 40.529 0 17.71-8.392 33.46-21.417 43.49l-0.129 0.095z" />
<glyph unicode="&#xe951;" glyph-name="facebook" d="M273.92 416h112.32v-463.36c0-9.19 7.45-16.64 16.64-16.64v0h190.4c9.19 0 16.64 7.45 16.64 16.64v0 459.84h128c8.426 0.109 15.334 6.464 16.312 14.641l0.008 0.079 19.52 170.24c0.071 0.577 0.111 1.244 0.111 1.921 0 9.117-7.331 16.521-16.42 16.639h-149.451v106.24c0 32 17.28 48.32 51.52 48.32h96c9.19 0 16.64 7.45 16.64 16.64v0 156.16c0.001 0.059 0.001 0.128 0.001 0.198 0 8.287-6.057 15.159-13.986 16.43l-0.095 0.013h-140.16c-64.461-0.43-123.192-24.618-167.95-64.235l0.27 0.235c-36.978-32.43-60.196-79.771-60.196-132.535 0-8.445 0.595-16.751 1.745-24.879l-0.108 0.934v-124.8h-117.76c-9.19 0-16.64-7.45-16.64-16.64v0-168c1.283-8.024 8.155-14.081 16.442-14.081 0.070 0 0.139 0 0.208 0.001h-0.011z" />
<glyph unicode="&#xe952;" glyph-name="flickr" d="M453.486 440.686c0-125.227-101.516-226.743-226.743-226.743s-226.743 101.516-226.743 226.743c0 125.227 101.516 226.743 226.743 226.743v0c125.227 0 226.743-101.516 226.743-226.743v0zM1024 440.686c0-125.227-101.516-226.743-226.743-226.743s-226.743 101.516-226.743 226.743c0 125.227 101.516 226.743 226.743 226.743v0c125.227 0 226.743-101.516 226.743-226.743v0z" />
<glyph unicode="&#xe953;" glyph-name="google-plus" d="M782.629 268.8h43.886c12.119 0 21.943 9.824 21.943 21.943v0 153.6h153.6c12.119 0 21.943 9.824 21.943 21.943v0 43.886c0 12.119-9.824 21.943-21.943 21.943v0h-153.6v153.6c0 12.119-9.824 21.943-21.943 21.943v0h-43.886c-12.119 0-21.943-9.824-21.943-21.943v0-153.6h-153.6c-12.119 0-21.943-9.824-21.943-21.943v0-43.886c0-12.119 9.824-21.943 21.943-21.943v0h153.6v-153.6c0-12.119 9.824-21.943 21.943-21.943v0zM175.543-1.829c37.006-8.443 79.804-13.726 123.68-14.618l0.663-0.011c39.341 0.852 77.042 6.137 113.159 15.376l-3.445-0.747c109.714 32.914 179.2 113.371 179.2 204.8s-29.257 138.971-106.057 193.829-62.171 54.857-62.171 65.829 3.657 29.257 43.886 62.171c49.97 35.334 82.595 92.332 84.11 157.024l0.004 0.233c0.146 2.87 0.23 6.232 0.23 9.613 0 47.74-16.632 91.596-44.417 126.089l0.302-0.387h36.571l58.514 43.886c5.383 4.044 8.828 10.416 8.828 17.592 0 2.882-0.556 5.634-1.566 8.156l0.052-0.148c0 7.314-10.971 14.629-18.286 14.629h-270.629c-32.99-1.119-64.305-6.387-94.044-15.302l2.615 0.673c-98.743-36.571-168.229-120.686-168.229-208.457 0-0.037 0-0.080 0-0.124 0-119.167 96.604-215.771 215.771-215.771 2.572 0 5.134 0.045 7.684 0.134l-0.37-0.010c-2.362-7.731-3.722-16.617-3.722-25.82 0-1.209 0.023-2.412 0.070-3.609l-0.005 0.172c0.298-18.951 5.7-36.581 14.884-51.652l-0.256 0.452h-3.657c-120.686 0-230.4-58.514-274.286-146.286-9.242-20.176-14.631-43.768-14.631-68.619 0-0.305 0.001-0.609 0.002-0.913v0.047c1.028-24.29 7.68-46.816 18.676-66.594l-0.39 0.765c25.6-47.543 80.457-80.457 157.257-102.4zM197.486 685.714c-1.342 7.627-2.109 16.408-2.109 25.368 0 32.948 10.374 63.472 28.033 88.486l-0.324-0.483c14.024 14.561 33.202 24.071 54.589 25.585l0.268 0.015h3.657c58.514-3.657 117.029-69.486 128-149.943 1.929-8.681 3.034-18.652 3.034-28.88 0-31.931-10.769-61.347-28.874-84.814l0.24 0.323c-12.154-15.668-30.985-25.656-52.149-25.656-0.952 0-1.9 0.020-2.842 0.060l0.135-0.005h-3.657c-58.514 0-117.029 69.486-128 149.943zM314.514 312.686h3.657c2.464 0.126 5.35 0.198 8.253 0.198 17.934 0 35.226-2.746 51.479-7.842l-1.218 0.329 18.286-10.971c40.229-29.257 69.486-51.2 76.8-80.457 2.388-5.479 3.777-11.863 3.777-18.571 0-1.187-0.043-2.363-0.129-3.528l0.009 0.156q0-120.686-175.543-120.686c-91.429 0-160.914 54.857-160.914 124.343s84.114 117.029 175.543 117.029z" />
<glyph unicode="&#xe954;" glyph-name="instagram" d="M516.16 827.52c123.52 0 138.24 0 186.88-2.56 31.009-0.381 60.541-6.216 87.839-16.587l-1.759 0.587c20.828-7.826 38.57-19.601 53.088-34.527l0.032-0.033c14.994-14.635 26.776-32.488 34.236-52.45l0.324-0.99c9.784-25.54 15.619-55.072 15.998-85.918l0.002-0.162c2.24-48.64 2.56-64 2.56-186.88s0-138.24-2.56-186.88c-0.381-31.009-6.216-60.541-16.587-87.839l0.587 1.759c-15.917-40.39-47.29-71.763-86.642-87.318l-1.038-0.362c-25.54-9.784-55.072-15.619-85.918-15.998l-0.162-0.002c-48.64-2.24-64-2.56-186.88-2.56s-138.24 0-186.88 2.56c-31.009 0.381-60.541 6.216-87.839 16.587l1.759-0.587c-20.828 7.826-38.57 19.601-53.088 34.527l-0.032 0.033c-14.959 14.55-26.734 32.292-34.233 52.133l-0.327 0.987c-9.784 25.54-15.619 55.072-15.998 85.918l-0.002 0.162c-2.24 48.64-2.56 64-2.56 186.88s0 138.24 2.56 186.88c0.381 31.009 6.216 60.541 16.587 87.839l-0.587-1.759c7.733 20.81 19.402 38.551 34.218 53.099l0.022 0.021c14.635 14.994 32.488 26.776 52.45 34.236l0.99 0.324c25.54 9.784 55.072 15.619 85.918 15.998l0.162 0.002c48.64 2.24 64 2.56 186.88 2.56zM516.16 910.72c-125.76 0-141.44 0-192-2.88-40.549-0.811-79.038-8.605-114.648-22.222l2.328 0.782c-31.741-12.696-58.737-31.166-80.88-54.316l-0.080-0.084c-22.868-22.277-41.022-49.27-52.906-79.422l-0.534-1.538c-12.692-32.883-20.472-70.91-21.432-110.628l-0.008-0.412c-2.24-49.28-2.88-64-2.88-192s0-141.44 2.88-192c0.811-40.549 8.605-79.038 22.222-114.648l-0.782 2.328c12.575-31.193 30.702-57.743 53.372-79.615l0.068-0.065c22.477-23.334 49.806-41.824 80.381-53.866l1.539-0.534c33.282-12.835 71.771-20.629 111.975-21.435l0.345-0.005c49.28-2.24 64-2.88 192-2.88s141.44 0 192 2.88c40.549 0.811 79.038 8.605 114.648 22.222l-2.328-0.782c62.364 24.556 110.804 72.996 134.802 133.758l0.558 1.602c11.996 33.049 19.015 71.196 19.2 110.957v0.083c2.24 49.28 2.88 64 2.88 192s0 141.44-2.88 192c-0.811 40.549-8.605 79.038-22.222 114.648l0.782-2.328c-12.575 31.193-30.702 57.743-53.372 79.615l-0.068 0.065c-22.477 23.334-49.806 41.824-80.381 53.866l-1.539 0.534c-33.282 12.835-71.771 20.629-111.975 21.435l-0.345 0.005c-49.28 2.24-64 2.88-192 2.88zM516.16 685.76c-0.095 0-0.208 0-0.32 0-131.311 0-237.76-106.449-237.76-237.76s106.449-237.76 237.76-237.76c131.311 0 237.76 106.449 237.76 237.76v0c0 0 0 0 0 0 0 131.199-106.266 237.577-237.422 237.76h-0.018zM516.16 293.76c-85.184 0-154.24 69.056-154.24 154.24s69.056 154.24 154.24 154.24c85.184 0 154.24-69.056 154.24-154.24v0c0-85.184-69.056-154.24-154.24-154.24v0zM818.56 695.040c0-30.751-24.929-55.68-55.68-55.68s-55.68 24.929-55.68 55.68c0 30.751 24.929 55.68 55.68 55.68s55.68-24.929 55.68-55.68z" />
<glyph unicode="&#xe955;" glyph-name="linkedin" d="M263.36 804.8c0.001-0.192 0.002-0.418 0.002-0.645 0-54.433-44.127-98.56-98.56-98.56-2.817 0-5.606 0.118-8.362 0.35l0.36-0.024c-2.026-0.152-4.388-0.239-6.771-0.239-53.019 0-96 42.981-96 96 0 1.097 0.018 2.189 0.055 3.277l-0.004-0.158c-0.003 0.288-0.005 0.627-0.005 0.968 0 54.080 43.84 97.92 97.92 97.92 2.818 0 5.607-0.119 8.365-0.352l-0.36 0.025c1.724 0.109 3.738 0.171 5.767 0.171 53.903 0 97.6-43.697 97.6-97.6 0-0.398-0.002-0.794-0.007-1.191l0.001 0.060zM59.2-7.36v635.2h196.8v-635.2zM375.040 425.28c0 79.36-2.56 145.6-5.12 202.56h171.52l9.28-88.32h3.84c41.405 62.29 111.286 102.787 190.627 102.787 1.946 0 3.885-0.024 5.819-0.073l-0.286 0.006c129.92 0 227.52-87.040 227.52-274.24v-375.36h-197.76v352c0 81.92-28.48 137.6-100.16 137.6-46.986-0.622-86.712-31.020-101.212-73.157l-0.228-0.763c-4.159-12.738-6.557-27.396-6.557-42.614 0-2.344 0.057-4.676 0.169-6.992l-0.013 0.327v-366.4h-197.44z" />
<glyph unicode="&#xe956;" glyph-name="pinterest" d="M277.943-56.686c-0.143-0.549-0.225-1.179-0.225-1.829 0-4.164 3.376-7.539 7.539-7.539 3.515 0 6.467 2.405 7.303 5.659l0.011 0.052c45.185 53.797 81.281 117.020 104.836 186.052l1.221 4.119 40.229 164.571c30.718-44.509 81.441-73.305 138.89-73.305 2.601 0 5.189 0.059 7.761 0.176l-0.365-0.013c186.514 0 314.514 171.886 314.514 402.286 0 175.543-146.286 336.457-369.371 336.457-281.6 0-420.571-201.143-420.571-365.714 0-102.4 36.571-193.829 120.686-226.743 2.395-0.977 5.175-1.544 8.086-1.544 10.066 0 18.549 6.778 21.134 16.019l0.037 0.154c2.126 17.715 5.98 33.794 11.458 49.1l-0.486-1.557c1.428 3.329 2.258 7.202 2.258 11.27 0 8.566-3.682 16.273-9.549 21.624l-0.023 0.021c-25.113 29.216-40.403 67.507-40.403 109.369 0 2.694 0.063 5.373 0.189 8.036l-0.014-0.376c-0.017 1.152-0.027 2.512-0.027 3.875 0 153.504 124.439 277.943 277.943 277.943 3.868 0 7.717-0.079 11.547-0.236l-0.549 0.018c157.257 0 245.029-98.743 245.029-226.743s-73.143-314.514-186.514-314.514c-0.799-0.025-1.739-0.039-2.682-0.039-50.495 0-91.429 40.934-91.429 91.429 0 7.805 0.978 15.382 2.818 22.615l-0.136-0.633c18.286 76.8 51.2 157.257 51.2 208.457s-25.6 91.429-80.457 91.429-113.371-65.829-113.371-153.6c-0.012-0.871-0.019-1.9-0.019-2.93 0-31.996 6.736-62.418 18.867-89.927l-0.562 1.428-73.143-321.829c-7.484-36.624-11.768-78.718-11.768-121.812 0-35.76 2.95-70.83 8.619-104.982l-0.508 3.708z" />
<glyph unicode="&#xe957;" glyph-name="tumblr" d="M336.457 74.971c13.18-27.743 31.73-50.975 54.473-69.189l0.384-0.297c25.507-22.582 56.046-40.126 89.667-50.721l1.762-0.479c32.235-11.59 69.43-18.289 108.19-18.289 0.536 0 1.072 0.001 1.607 0.004h-0.083c1.438-0.014 3.138-0.022 4.839-0.022 38.42 0 75.905 4.003 112.061 11.615l-3.529-0.622 120.686 43.886v160.914c-43.096-29.433-96.24-47.145-153.499-47.542l-0.101-0.001c-2.221-0.115-4.822-0.18-7.438-0.18-26.754 0-51.911 6.84-73.816 18.867l0.797-0.401c-15.993 10.89-28.525 25.772-36.312 43.235l-0.259 0.651c-5.414 23.938-8.516 51.43-8.516 79.646 0 10.583 0.436 21.065 1.292 31.427l-0.090-1.358v263.314h237.714v182.857h-237.714v237.714h-146.286c-4.404-48.493-16.090-93.146-34.001-134.473l1.087 2.816c-18.607-34.076-41.788-63.088-69.166-87.492l-0.32-0.28c-33.505-23.569-72.46-42.347-114.323-54.202l-2.706-0.655v-146.286h138.971v-358.4c-0.308-4.864-0.483-10.547-0.483-16.272 0-32.161 5.535-63.029 15.705-91.704l-0.593 1.918z" />
<glyph unicode="&#xe958;" glyph-name="twitter" d="M992 744.32c-32.863-14.732-71.020-25.928-110.929-31.72l-2.351-0.28c40.36 24.14 70.64 61.583 85.060 106.161l0.38 1.359c-36.158-21.074-78.101-37.553-122.6-47.166l-2.84-0.514c-34.162 39.3-84.233 64.003-140.073 64.003-0.368 0-0.736-0.001-1.103-0.003h0.057c-107.117-0.905-193.602-87.949-193.602-195.193 0-0.34 0.001-0.679 0.003-1.019v0.052c-0.001-0.243-0.002-0.53-0.002-0.818 0-15.327 2.222-30.135 6.361-44.12l-0.279 1.098c-164.054 7.032-308.693 84.556-405.294 202.847l-0.786 0.993c-16.092-28.608-25.579-62.794-25.6-99.194v-0.006c0-0.135-0.001-0.294-0.001-0.453 0-67.72 34.541-127.372 86.967-162.299l0.714-0.447c-32.988 1.994-63.529 10.639-90.903 24.604l1.303-0.604v-1.92c0.247-94.374 66.991-173.089 155.839-191.775l1.281-0.225c-15.319-3.864-32.905-6.082-51.009-6.082-0.292 0-0.584 0.001-0.876 0.002h0.045c-13.577 0.327-26.595 1.71-39.268 4.074l1.508-0.234c25.695-78.389 97.699-134.215 182.905-135.359l0.135-0.001c-66.369-51.869-150.933-83.26-242.821-83.52h-0.059c-2.613-0.073-5.688-0.114-8.773-0.114-13.031 0-25.888 0.739-38.534 2.177l1.548-0.143c84.524-54.984 187.937-87.682 298.987-87.682 0.525 0 1.050 0.001 1.574 0.002h-0.081c360.32-0.96 557.12 297.6 557.12 556.48v25.6c37.856 28.088 69.726 61.69 95.089 99.977l0.911 1.463z" />
<glyph unicode="&#xe959;" glyph-name="arrow-set1-right" d="M558.899 656.435l338.688-213.376c9.344-5.888 14.933-16.085 14.933-27.093 0-10.965-5.589-21.205-14.933-27.051l-338.688-213.376c-5.163-3.285-11.093-4.949-17.024-4.949-5.333 0-10.624 1.365-15.445 4.011-10.24 5.632-16.555 16.341-16.555 27.989l-0.043 181.41-349.824-0.017c-17.664 0-32 14.336-32 32s14.336 32 32 32l349.824 0.017 0.043 181.342c0 11.691 6.315 22.4 16.555 28.032 10.197 5.589 22.699 5.248 32.469-0.939zM573.875 571.358l-0.006-154.727c0.004-0.215 0.006-0.431 0.006-0.648l-0.043-0.623 0.043-154.744 246.613 155.349-246.613 155.392z" />
<glyph unicode="&#xe95a;" glyph-name="arrow-set1-down" d="M501.385 831.991c17.664 0 32-14.336 32-32l-0.007-349.867h181.4c11.648 0 22.357-6.315 27.989-16.555 5.675-10.197 5.291-22.656-0.939-32.469l-213.376-338.645c-5.845-9.344-16.085-14.976-27.051-14.976-11.008 0-21.205 5.632-27.093 14.976l-213.376 338.645c-6.229 9.813-6.571 22.272-0.939 32.469 5.632 10.24 16.341 16.555 28.032 16.555h181.352l0.007 349.867c0 17.664 14.336 32 32 32zM656.751 386.125h-310.741l155.392-246.571 155.349 246.571z" />
<glyph unicode="&#xe95b;" glyph-name="arrow-set1-left" d="M507.767 656.435l-338.688-213.376c-9.344-5.888-14.933-16.085-14.933-27.093 0-10.965 5.589-21.205 14.933-27.051l338.688-213.376c5.163-3.285 11.093-4.949 17.024-4.949 5.333 0 10.624 1.365 15.445 4.011 10.24 5.632 16.555 16.341 16.555 27.989l0.043 181.41 349.824-0.017c17.664 0 32 14.336 32 32s-14.336 32-32 32l-349.824 0.017-0.043 181.342c0 11.691-6.315 22.4-16.555 28.032-10.197 5.589-22.699 5.248-32.469-0.939zM492.791 571.358l0.006-154.727c-0.004-0.215-0.006-0.431-0.006-0.648l0.043-0.623-0.043-154.744-246.613 155.349 246.613 155.392z" />
<glyph unicode="&#xe95c;" glyph-name="arrow-set1-up" d="M501.385 21.342c17.664 0 32 14.336 32 32l-0.007 349.824 181.4 0.043c11.648 0 22.357 6.315 27.989 16.555 5.675 10.197 5.291 22.656-0.939 32.469l-213.376 338.645c-5.845 9.344-16.085 14.976-27.051 14.976-11.008 0-21.205-5.632-27.093-14.976l-213.376-338.645c-6.229-9.813-6.571-22.272-0.939-32.469 5.632-10.24 16.341-16.555 28.032-16.555l181.352-0.043 0.007-349.824c0-17.664 14.336-32 32-32zM656.751 467.209l-154.756-0.006c-0.203 0.004-0.407 0.006-0.611 0.006l-0.647-0.043-154.728 0.043 155.392 246.571 155.349-246.571z" />
<glyph unicode="&#xe95d;" glyph-name="arrow-set2-down" d="M190.706 619.961c11.361 11.361 29.138 12.393 41.666 3.098l3.589-3.098 276.039-276.025 276.039 276.025c11.361 11.361 29.138 12.393 41.666 3.098l3.589-3.098c11.361-11.361 12.393-29.138 3.098-41.666l-3.098-3.589-298.667-298.667c-11.361-11.361-29.138-12.393-41.666-3.098l-3.589 3.098-298.667 298.667c-12.497 12.497-12.497 32.758 0 45.255z" />
<glyph unicode="&#xe95e;" glyph-name="arrow-set2-left" d="M683.961 769.293c11.361-11.361 12.393-29.138 3.098-41.666l-3.098-3.589-276.025-276.039 276.025-276.039c11.361-11.361 12.393-29.138 3.098-41.666l-3.098-3.589c-11.361-11.361-29.138-12.393-41.666-3.098l-3.589 3.098-298.667 298.667c-11.361 11.361-12.393 29.138-3.098 41.666l3.098 3.589 298.667 298.667c12.497 12.497 32.758 12.497 45.255 0z" />
<glyph unicode="&#xe95f;" glyph-name="arrow-set2-right" d="M340.039 126.707c-11.361 11.361-12.393 29.138-3.098 41.666l3.098 3.589 276.025 276.039-276.025 276.039c-11.361 11.361-12.393 29.138-3.098 41.666l3.098 3.589c11.361 11.361 29.138 12.393 41.666 3.098l3.589-3.098 298.667-298.667c11.361-11.361 12.393-29.138 3.098-41.666l-3.098-3.589-298.667-298.667c-12.497-12.497-32.758-12.497-45.255 0z" />
<glyph unicode="&#xe960;" glyph-name="arrow-set2-up" d="M833.293 276.039c-11.361-11.361-29.138-12.393-41.666-3.098l-3.589 3.098-276.039 276.025-276.039-276.025c-11.361-11.361-29.138-12.393-41.666-3.098l-3.589 3.098c-11.361 11.361-12.393 29.138-3.098 41.666l3.098 3.589 298.667 298.667c11.361 11.361 29.138 12.393 41.666 3.098l3.589-3.098 298.667-298.667c12.497-12.497 12.497-32.758 0-45.255z" />
</font>
</defs>
</svg>
